  0
SECTION
  2
HEADER
  9
$ACADVER
  1
AC1014
999
I-DEAS 11 NX Not Encoded
  9
$EXTMIN
 10
0.0
 20
0.0
  9
$EXTMAX
 10
4.2E+02
 20
2.97E+02
  9
$TEXTSIZE
 40
1.25E-01
  9
$LTSCALE
 40
1.0
  9
$CLAYER
  8
200
  9
$CECOLOR
 62
6
  9
$DIMASZ
 40
1.25E-01
  9
$DIMEXO
 40
6.25E-02
  9
$DIMDLI
 40
2.5E-01
  9
$DIMEXE
 40
1.25E-01
  9
$DIMTP
 40
5.0E-03
  9
$DIMTM
 40
-5.0E-03
  9
$DIMTXT
 40
3.0
  9
$DIMLIM
 70
0
  9
$DIMTIH
 70
1
  9
$DIMTOH
 70
1
  9
$DIMSE1
 70
0
  9
$DIMSE2
 70
0
  9
$DIMTAD
 70
0
  9
$DIMASO
 70
1
  9
$DIMALT
 70
0
  9
$DIMALTD
 70
0
  9
$DIMTOFL
 70
1
  9
$DIMTIX
 70
0
  9
$DIMSAH
 70
0
  9
$DIMTFAC
 40
1.0
  9
$DIMGAP
 40
6.25E-02
  9
$LUNITS
 70
2
  9
$LUPREC
 70
3
  9
$FILLETRAD
 40
1.0
  9
$AUNITS
 70
0
  9
$AUPREC
 70
1
  9
$CHAMFERA
 40
6.0
  9
$CHAMFERB
 40
6.0
  9
$ANGBASE
 50
0.0
  9
$ANGDIR
 70
0
  9
$PEXTMIN
 10
0.0
 20
0.0
 30
0.0
  9
$PEXTMAX
 10
4.2E+02
 20
2.97E+02
 30
0.0
  9
$PLIMMIN
 10
0.0
 20
0.0
  9
$PLIMMAX
 10
4.2E+02
 20
2.97E+02
  9
$PDMODE
 70
2
  9
$PDSIZE
 40
-1.0E-02
  9
$SPLINETYPE
 70
6
  9
$TILEMODE
 70
0
  9
$HANDLING
 70
1
  9
$HANDSEED
  5
f4240
  0
ENDSEC
  0
SECTION
  2
TABLES
  0
TABLE
  2
VPORT
  5
64
100
AcDbSymbolTable
 70
2
  0
VPORT
  5
65
100
AcDbSymbolTableRecord
100
AcDbViewportTableRecord
  2
*Active
 70
0
 10
0.0
 20
0.0
 11
4.2E+02
 21
2.97E+02
 12
2.1E+02
 22
1.485E+02
 13
0.0
 23
0.0
 14
1.0
 24
1.0
 15
0.0
 25
0.0
 16
0.0
 26
0.0
 36
1.0
 17
0.0
 27
0.0
 37
0.0
 40
2.97E+02
 41
1.4141414
 42
5.0E+01
 43
0.0
 44
0.0
 50
0.0
 51
0.0
 71
0
 72
100
 73
1
 74
3
 75
0
 76
0
 77
0
 78
0
  0
ENDTAB
  0
TABLE
  2
LTYPE
  5
66
100
AcDbSymbolTable
 70
7
  0
LTYPE
  5
67
100
AcDbSymbolTableRecord
100
AcDbLinetypeTableRecord
  2
BYBLOCK
 70
0
  3

 72
65
 73
0
 40
0.0
  0
LTYPE
  5
68
100
AcDbSymbolTableRecord
100
AcDbLinetypeTableRecord
  2
BYLAYER
 70
0
  3

 72
65
 73
0
 40
0.0
  0
LTYPE
  5
69
100
AcDbSymbolTableRecord
100
AcDbLinetypeTableRecord
  2
CONTINUOUS
 70
0
  3

 72
65
 73
0
 40
0.0
  0
LTYPE
  5
6a
100
AcDbSymbolTableRecord
100
AcDbLinetypeTableRecord
  2
HIDDENNEW0
  3
_ 
 70
64
 72
65
 73
3
 40
4.5
 49
1.5
 74
0
 49
-1.5
 74
0
 49
1.5
 74
0
  0
LTYPE
  5
6b
100
AcDbSymbolTableRecord
100
AcDbLinetypeTableRecord
  2
HIDDENNEW1
  3
_ 
 70
64
 72
65
 73
3
 40
4.5
 49
1.5
 74
0
 49
-1.5
 74
0
 49
1.5
 74
0
  0
LTYPE
  5
6c
100
AcDbSymbolTableRecord
100
AcDbLinetypeTableRecord
  2
HIDDEN
  3
_ 
 70
64
 72
65
 73
3
 40
4.5
 49
1.5
 74
0
 49
-1.5
 74
0
 49
1.5
 74
0
  0
LTYPE
  5
6d
100
AcDbSymbolTableRecord
100
AcDbLinetypeTableRecord
  2
CENTERLINE
  3
_ 
 70
64
 72
65
 73
5
 40
3.0E+01
 49
1.2E+01
 74
0
 49
-1.5
 74
0
 49
3.0
 74
0
 49
-1.5
 74
0
 49
1.2E+01
 74
0
  0
LTYPE
  5
6e
100
AcDbSymbolTableRecord
100
AcDbLinetypeTableRecord
  2
PHANTOM
  3
_ 
 70
64
 72
65
 73
7
 40
2.95E+01
 49
9.5
 74
0
 49
-1.5
 74
0
 49
3.0
 74
0
 49
-1.5
 74
0
 49
3.0
 74
0
 49
-1.5
 74
0
 49
9.5
 74
0
  0
LTYPE
  5
6f
100
AcDbSymbolTableRecord
100
AcDbLinetypeTableRecord
  2
SHORT_DASH
  3
_ 
 70
64
 72
65
 73
3
 40
3.0
 49
7.5E-01
 74
0
 49
-1.5
 74
0
 49
7.5E-01
 74
0
  0
LTYPE
  5
70
100
AcDbSymbolTableRecord
100
AcDbLinetypeTableRecord
  2
LONG_DASH
  3
_ 
 70
64
 72
65
 73
3
 40
9.0
 49
2.25
 74
0
 49
-4.5
 74
0
 49
2.25
 74
0
  0
ENDTAB
  0
TABLE
  2
LAYER
  5
71
100
AcDbSymbolTable
 70
258
  0
LAYER
  5
72
100
AcDbSymbolTableRecord
100
AcDbLayerTableRecord
  2
0
 70
0
 62
7
  6
CONTINUOUS
  0
LAYER
  5
73
100
AcDbSymbolTableRecord
100
AcDbLayerTableRecord
  2
1
 70
0
 62
7
  6
CONTINUOUS
  0
LAYER
  5
74
100
AcDbSymbolTableRecord
100
AcDbLayerTableRecord
  2
2
 70
0
 62
7
  6
CONTINUOUS
  0
LAYER
  5
75
100
AcDbSymbolTableRecord
100
AcDbLayerTableRecord
  2
3
 70
0
 62
7
  6
CONTINUOUS
  0
LAYER
  5
76
100
AcDbSymbolTableRecord
100
AcDbLayerTableRecord
  2
Drafting_Hidden_Entities
 70
1
 62
7
  6
CONTINUOUS
  0
ENDTAB
  0
TABLE
  2
STYLE
  5
77
100
AcDbSymbolTable
 70
1
  0
STYLE
  5
78
100
AcDbSymbolTableRecord
100
AcDbTextStyleTableRecord
  2
STANDARD
 70
64
 40
0.0
 41
1.0
 50
0.0
 71
0
 42
1.0
  3
monotxt.shx
  4

  0
ENDTAB
  0
TABLE
  2
VIEW
  5
79
100
AcDbSymbolTable
 70
0
  0
ENDTAB
  0
TABLE
  2
UCS
  5
7a
100
AcDbSymbolTable
 70
0
  0
ENDTAB
  0
TABLE
  2
APPID
  5
7b
100
AcDbSymbolTable
 70
1
  0
APPID
  5
7c
100
AcDbSymbolTableRecord
100
AcDbRegAppTableRecord
  2
ACAD
 70
1
  0
ENDTAB
  0
TABLE
  2
DIMSTYLE
  5
7d
100
AcDbSymbolTable
 70
6
  0
DIMSTYLE
105
7e
100
AcDbSymbolTableRecord
100
AcDbDimStyleTableRecord
  2
DSTYLE1
 70
0
  3

  4

  5

  6

  7

 40
1.0
 41
4.0E+01
 42
0.0
 43
3.8E-01
 44
6.0
 45
0.0
 46
0.0
 47
0.0
 48
-0.0
 71
0
 72
0
 73
1
 74
1
 75
1
 76
1
 77
1
 78
3
140
5.0E+01
141
9.0E-02
142
0.0
143
1.0
144
1.0
145
0.0
146
1.0
147
1.5
170
0
171
2
172
0
173
0
174
0
175
0
176
0
177
0
178
0
270
2
271
0
272
4
273
2
274
2
275
0
280
0
281
0
282
0
283
1
284
0
285
0
286
0
287
3
288
0
  0
DIMSTYLE
105
7f
100
AcDbSymbolTableRecord
100
AcDbDimStyleTableRecord
  2
DSTYLE2
 70
0
  3

  4

  5

  6

  7

 40
1.0
 41
3.5E+01
 42
1.0
 43
3.8E-01
 44
1.0
 45
1.0E-03
 46
0.0
 47
1.0E-01
 48
-0.0
 71
0
 72
0
 73
0
 74
0
 75
1
 76
1
 77
1
 78
11
140
3.5E+01
141
9.0E-02
142
0.0
143
3.9370079E-02
144
1.0
145
0.0
146
1.0
147
1.5
170
0
171
2
172
0
173
0
174
0
175
0
176
0
177
0
178
0
270
2
271
3
272
4
273
2
274
2
275
0
280
0
281
0
282
0
283
1
284
0
285
0
286
0
287
3
288
0
  0
DIMSTYLE
105
80
100
AcDbSymbolTableRecord
100
AcDbDimStyleTableRecord
  2
DSTYLE3
 70
0
  3

  4

  5

  6

  7

 40
1.0
 41
3.5E+01
 42
1.0
 43
3.8E-01
 44
1.0
 45
1.0E-03
 46
0.0
 47
1.0E-01
 48
-0.0
 71
0
 72
0
 73
0
 74
0
 75
0
 76
0
 77
1
 78
11
140
3.5E+01
141
9.0E-02
142
0.0
143
3.9370079E-02
144
1.0
145
0.0
146
1.0
147
1.5
170
0
171
2
172
0
173
0
174
0
175
0
176
0
177
0
178
0
270
2
271
3
272
4
273
2
274
2
275
0
280
0
281
0
282
0
283
1
284
0
285
0
286
0
287
3
288
0
  0
DIMSTYLE
105
81
100
AcDbSymbolTableRecord
100
AcDbDimStyleTableRecord
  2
DSTYLE4
 70
0
  3

  4

  5

  6

  7

 40
1.0
 41
3.5E+01
 42
2.0
 43
3.8E-01
 44
4.0
 45
1.0E-03
 46
0.0
 47
1.0E-01
 48
-0.0
 71
1
 72
0
 73
1
 74
1
 75
1
 76
0
 77
0
 78
11
140
3.5E+01
141
9.0E-02
142
0.0
143
3.9370079E-02
144
1.0
145
0.0
146
1.0
147
2.0
170
0
171
2
172
1
173
0
174
0
175
0
176
0
177
0
178
0
270
2
271
3
272
4
273
2
274
2
275
0
280
0
281
0
282
0
283
1
284
0
285
0
286
0
287
3
288
0
  0
DIMSTYLE
105
82
100
AcDbSymbolTableRecord
100
AcDbDimStyleTableRecord
  2
DSTYLE5
 70
0
  3

  4

  5

  6

  7

 40
1.0
 41
3.5E+01
 42
1.0
 43
3.8E-01
 44
1.0
 45
1.0E-03
 46
0.0
 47
1.0E-01
 48
-0.0
 71
0
 72
0
 73
0
 74
0
 75
0
 76
1
 77
1
 78
11
140
3.5E+01
141
9.0E-02
142
0.0
143
3.9370079E-02
144
1.0
145
0.0
146
1.0
147
1.5
170
0
171
2
172
0
173
0
174
0
175
0
176
0
177
0
178
0
270
2
271
3
272
4
273
2
274
2
275
0
280
0
281
0
282
0
283
1
284
0
285
0
286
0
287
3
288
0
  0
DIMSTYLE
105
83
100
AcDbSymbolTableRecord
100
AcDbDimStyleTableRecord
  2
DSTYLE6
 70
0
  3

  4

  5

  6

  7

 40
1.0
 41
3.5E+01
 42
1.0
 43
3.8E-01
 44
1.0
 45
1.0E-03
 46
0.0
 47
2.0E-01
 48
-0.0
 71
1
 72
0
 73
0
 74
0
 75
0
 76
0
 77
1
 78
11
140
3.5E+01
141
9.0E-02
142
0.0
143
3.9370079E-02
144
1.0
145
0.0
146
1.0
147
1.5
170
0
171
2
172
0
173
0
174
0
175
0
176
0
177
0
178
0
270
2
271
3
272
4
273
2
274
2
275
0
280
0
281
0
282
0
283
1
284
0
285
0
286
0
287
3
288
0
  0
ENDTAB
  0
TABLE
  2
BLOCK_RECORD
  5
84
100
AcDbSymbolTable
 70
0
  0
BLOCK_RECORD
  5
85
100
AcDbSymbolTableRecord
100
AcDbBlockTableRecord
  2
*MODEL_SPACE
  0
BLOCK_RECORD
  5
86
100
AcDbSymbolTableRecord
100
AcDbBlockTableRecord
  2
*PAPER_SPACE
  0
BLOCK_RECORD
  5
87
100
AcDbSymbolTableRecord
100
AcDbBlockTableRecord
  2
*D819
  0
BLOCK_RECORD
  5
88
100
AcDbSymbolTableRecord
100
AcDbBlockTableRecord
  2
*D833
  0
BLOCK_RECORD
  5
89
100
AcDbSymbolTableRecord
100
AcDbBlockTableRecord
  2
*D834
  0
BLOCK_RECORD
  5
8a
100
AcDbSymbolTableRecord
100
AcDbBlockTableRecord
  2
*D835
  0
BLOCK_RECORD
  5
8b
100
AcDbSymbolTableRecord
100
AcDbBlockTableRecord
  2
*D836
  0
BLOCK_RECORD
  5
8c
100
AcDbSymbolTableRecord
100
AcDbBlockTableRecord
  2
*D837
  0
BLOCK_RECORD
  5
8d
100
AcDbSymbolTableRecord
100
AcDbBlockTableRecord
  2
*D838
  0
BLOCK_RECORD
  5
8e
100
AcDbSymbolTableRecord
100
AcDbBlockTableRecord
  2
*D839
  0
BLOCK_RECORD
  5
8f
100
AcDbSymbolTableRecord
100
AcDbBlockTableRecord
  2
*D840
  0
BLOCK_RECORD
  5
90
100
AcDbSymbolTableRecord
100
AcDbBlockTableRecord
  2
*D841
  0
BLOCK_RECORD
  5
91
100
AcDbSymbolTableRecord
100
AcDbBlockTableRecord
  2
_AH1
  0
BLOCK_RECORD
  5
92
100
AcDbSymbolTableRecord
100
AcDbBlockTableRecord
  2
_AH2
  0
BLOCK_RECORD
  5
93
100
AcDbSymbolTableRecord
100
AcDbBlockTableRecord
  2
_AH12
  3
_AH
  0
BLOCK_RECORD
  5
94
100
AcDbSymbolTableRecord
100
AcDbBlockTableRecord
  2
_AH13
  3
_AH
  0
BLOCK_RECORD
  5
95
100
AcDbSymbolTableRecord
100
AcDbBlockTableRecord
  2
_AH14
  3
_AH
  0
BLOCK_RECORD
  5
96
100
AcDbSymbolTableRecord
100
AcDbBlockTableRecord
  2
_AH15
  3
_AH
  0
BLOCK_RECORD
  5
97
100
AcDbSymbolTableRecord
100
AcDbBlockTableRecord
  2
_AH16
  3
_AH
  0
BLOCK_RECORD
  5
98
100
AcDbSymbolTableRecord
100
AcDbBlockTableRecord
  2
_AH17
  3
_AH
  0
BLOCK_RECORD
  5
99
100
AcDbSymbolTableRecord
100
AcDbBlockTableRecord
  2
_AH18
  3
_AH
  0
BLOCK_RECORD
  5
9a
100
AcDbSymbolTableRecord
100
AcDbBlockTableRecord
  2
_AH19
  3
_AH
  0
BLOCK_RECORD
  5
9b
100
AcDbSymbolTableRecord
100
AcDbBlockTableRecord
  2
_AH20
  3
_AH
  0
BLOCK_RECORD
  5
9c
100
AcDbSymbolTableRecord
100
AcDbBlockTableRecord
  2
_AH21
  3
_AH
  0
BLOCK_RECORD
  5
9d
100
AcDbSymbolTableRecord
100
AcDbBlockTableRecord
  2
STUKLIJST
  0
BLOCK_RECORD
  5
9e
100
AcDbSymbolTableRecord
100
AcDbBlockTableRecord
  2
NEW_TITELBLOCK
  0
BLOCK_RECORD
  5
9f
100
AcDbSymbolTableRecord
100
AcDbBlockTableRecord
  2
*TX60
  3
*TX
  0
ENDTAB
  0
ENDSEC
  0
SECTION
  2
BLOCKS
  0
BLOCK
  5
a0
100
AcDbEntity
100
AcDbBlockBegin
  2
*MODEL_SPACE
 70
0
 10
0.0
 20
0.0
 30
0.0
  3
*MODEL_SPACE
  1

  0
ENDBLK
  5
a1
100
AcDbEntity
100
AcDbBlockEnd
  0
BLOCK
  5
a2
100
AcDbEntity
100
AcDbBlockBegin
  2
*PAPER_SPACE
 70
0
 10
0.0
 20
0.0
 30
0.0
  3
*PAPER_SPACE
  1

  0
ENDBLK
  5
a3
100
AcDbEntity
100
AcDbBlockEnd
  0
BLOCK
  5
a4
100
AcDbEntity
100
AcDbBlockBegin
  2
_AH12
  3
_AH
 10
0.0
 20
0.0
 70
64
  0
LINE
  5
a5
100
AcDbEntity
  8
0
100
AcDbLine
  6
CONTINUOUS
 62
0
 10
0.0
 20
0.0
 11
1.0
 21
0.0
  0
LINE
  5
a6
100
AcDbEntity
  8
0
100
AcDbLine
  6
CONTINUOUS
 62
0
 10
0.0
 20
0.0
 11
-1.0
 21
0.0
  0
ENDBLK
  5
a7
100
AcDbEntity
100
AcDbBlockEnd
  0
BLOCK
  5
a8
100
AcDbEntity
100
AcDbBlockBegin
  2
_AH13
  3
_AH
 10
0.0
 20
0.0
 70
64
  0
SOLID
  5
a9
100
AcDbEntity
  8
0
100
AcDbTrace
  6
CONTINUOUS
 62
0
 10
0.0
 20
0.0
 11
-1.0
 21
1.66667E-01
 12
-1.0
 22
-1.66667E-01
 13
0.0
 23
0.0
  0
ENDBLK
  5
aa
100
AcDbEntity
100
AcDbBlockEnd
  0
BLOCK
  5
ab
100
AcDbEntity
100
AcDbBlockBegin
  2
_AH14
  3
_AH
 10
0.0
 20
0.0
 70
64
  0
ENDBLK
  5
ac
100
AcDbEntity
100
AcDbBlockEnd
  0
BLOCK
  5
ad
100
AcDbEntity
100
AcDbBlockBegin
  2
_AH15
  3
_AH
 10
0.0
 20
0.0
 70
64
  0
CIRCLE
  5
ae
100
AcDbEntity
  8
0
100
AcDbCircle
  6
CONTINUOUS
 62
0
 10
0.0
 20
0.0
 40
1.66667E-01
  0
LINE
  5
af
100
AcDbEntity
  8
0
100
AcDbLine
  6
CONTINUOUS
 62
0
 10
0.0
 20
0.0
 11
-1.0
 21
0.0
  0
ENDBLK
  5
b0
100
AcDbEntity
100
AcDbBlockEnd
  0
BLOCK
  5
b1
100
AcDbEntity
100
AcDbBlockBegin
  2
_AH16
  3
_AH
 10
0.0
 20
0.0
 70
64
  0
POLYLINE
  5
b2
100
AcDbEntity
  8
0
100
AcDb2dPolyline
  6
CONTINUOUS
 62
0
 66
1
 40
1.66667E-01
 41
1.66667E-01
 70
0
  0
VERTEX
  5
b3
100
AcDbEntity
  8
0
100
AcDbVertex
100
AcDb2dVertex
 42
1.0
 10
8.3335E-02
 20
0.0
 70
0
  0
VERTEX
  5
b4
100
AcDbEntity
  8
0
100
AcDbVertex
100
AcDb2dVertex
 42
1.0
 10
-8.3335E-02
 20
0.0
 70
0
  0
VERTEX
  5
b5
100
AcDbEntity
  8
0
100
AcDbVertex
100
AcDb2dVertex
 42
0.0
 10
8.3335E-02
 20
0.0
 70
0
  0
SEQEND
  5
b6
100
AcDbEntity
  0
LINE
  5
b7
100
AcDbEntity
  8
0
100
AcDbLine
  6
CONTINUOUS
 62
0
 10
0.0
 20
0.0
 11
-1.0
 21
0.0
  0
ENDBLK
  5
b8
100
AcDbEntity
100
AcDbBlockEnd
  0
BLOCK
  5
b9
100
AcDbEntity
100
AcDbBlockBegin
  2
_AH17
  3
_AH
 10
0.0
 20
0.0
 70
64
  0
LINE
  5
ba
100
AcDbEntity
  8
0
100
AcDbLine
  6
CONTINUOUS
 62
0
 10
-1.66667E-01
 20
-1.66667E-01
 11
1.66667E-01
 21
-1.66667E-01
  0
LINE
  5
bb
100
AcDbEntity
  8
0
100
AcDbLine
  6
CONTINUOUS
 62
0
 10
1.66667E-01
 20
-1.66667E-01
 11
1.66667E-01
 21
1.66667E-01
  0
LINE
  5
bc
100
AcDbEntity
  8
0
100
AcDbLine
  6
CONTINUOUS
 62
0
 10
1.66667E-01
 20
1.66667E-01
 11
-1.66667E-01
 21
1.66667E-01
  0
LINE
  5
bd
100
AcDbEntity
  8
0
100
AcDbLine
  6
CONTINUOUS
 62
0
 10
-1.66667E-01
 20
1.66667E-01
 11
-1.66667E-01
 21
-1.66667E-01
  0
LINE
  5
be
100
AcDbEntity
  8
0
100
AcDbLine
  6
CONTINUOUS
 62
0
 10
0.0
 20
0.0
 11
-1.0
 21
0.0
  0
ENDBLK
  5
bf
100
AcDbEntity
100
AcDbBlockEnd
  0
BLOCK
  5
c0
100
AcDbEntity
100
AcDbBlockBegin
  2
_AH18
  3
_AH
 10
0.0
 20
0.0
 70
64
  0
SOLID
  5
c1
100
AcDbEntity
  8
0
100
AcDbTrace
  6
CONTINUOUS
 62
0
 10
-1.66667E-01
 20
-1.66667E-01
 11
1.66667E-01
 21
-1.66667E-01
 12
-1.66667E-01
 22
1.66667E-01
 13
1.66667E-01
 23
1.66667E-01
  0
LINE
  5
c2
100
AcDbEntity
  8
0
100
AcDbLine
  6
CONTINUOUS
 62
0
 10
0.0
 20
0.0
 11
-1.0
 21
0.0
  0
ENDBLK
  5
c3
100
AcDbEntity
100
AcDbBlockEnd
  0
BLOCK
  5
c4
100
AcDbEntity
100
AcDbBlockBegin
  2
_AH19
  3
_AH
 10
0.0
 20
0.0
 70
64
  0
LINE
  5
c5
100
AcDbEntity
  8
0
100
AcDbLine
  6
CONTINUOUS
 62
0
 10
-5.0E-01
 20
-5.0E-01
 11
5.0E-01
 21
5.0E-01
  0
LINE
  5
c6
100
AcDbEntity
  8
0
100
AcDbLine
  6
CONTINUOUS
 62
0
 10
0.0
 20
0.0
 11
-1.0
 21
0.0
  0
ENDBLK
  5
c7
100
AcDbEntity
100
AcDbBlockEnd
  0
BLOCK
  5
c8
100
AcDbEntity
100
AcDbBlockBegin
  2
_AH20
  3
_AH
 10
0.0
 20
0.0
 70
64
  0
POLYLINE
  5
c9
100
AcDbEntity
  8
0
100
AcDb2dPolyline
  6
CONTINUOUS
 62
0
 66
1
 40
5.0E-01
 41
5.0E-01
 70
0
  0
VERTEX
  5
ca
100
AcDbEntity
  8
0
100
AcDbVertex
100
AcDb2dVertex
 42
4.1421356E-01
 10
-1.66667E-01
 20
-1.66667E-01
 70
0
  0
VERTEX
  5
cb
100
AcDbEntity
  8
0
100
AcDbVertex
100
AcDb2dVertex
 42
0.0
 10
0.0
 20
0.0
 70
0
  0
SEQEND
  5
cc
100
AcDbEntity
  0
POLYLINE
  5
cd
100
AcDbEntity
  8
0
100
AcDb2dPolyline
  6
CONTINUOUS
 62
0
 66
1
 40
5.0E-01
 41
5.0E-01
 70
0
  0
VERTEX
  5
ce
100
AcDbEntity
  8
0
100
AcDbVertex
100
AcDb2dVertex
 42
4.1421356E-01
 10
1.66667E-01
 20
1.66667E-01
 70
0
  0
VERTEX
  5
cf
100
AcDbEntity
  8
0
100
AcDbVertex
100
AcDb2dVertex
 42
0.0
 10
0.0
 20
0.0
 70
0
  0
SEQEND
  5
d0
100
AcDbEntity
  0
LINE
  5
d1
100
AcDbEntity
  8
0
100
AcDbLine
  6
CONTINUOUS
 62
0
 10
0.0
 20
0.0
 11
-1.0
 21
0.0
  0
ENDBLK
  5
d2
100
AcDbEntity
100
AcDbBlockEnd
  0
BLOCK
  5
d3
100
AcDbEntity
100
AcDbBlockBegin
  2
_AH21
  3
_AH
 10
0.0
 20
0.0
 70
64
  0
LINE
  5
d4
100
AcDbEntity
  8
0
100
AcDbLine
  6
CONTINUOUS
 62
0
 10
0.0
 20
0.0
 11
-1.0
 21
-1.66667E-01
  0
LINE
  5
d5
100
AcDbEntity
  8
0
100
AcDbLine
  6
CONTINUOUS
 62
0
 10
-1.0
 20
-1.66667E-01
 11
-1.0
 21
1.66667E-01
  0
LINE
  5
d6
100
AcDbEntity
  8
0
100
AcDbLine
  6
CONTINUOUS
 62
0
 10
-1.0
 20
1.66667E-01
 11
0.0
 21
0.0
  0
ENDBLK
  5
d7
100
AcDbEntity
100
AcDbBlockEnd
  0
BLOCK
  5
d8
100
AcDbEntity
100
AcDbBlockBegin
  2
STUKLIJST
 10
0.0
 20
0.0
 70
0
  0
TEXT
  5
d9
100
AcDbEntity
  8
199
100
AcDbText
  6
CONTINUOUS
 62
1
 10
-1.5778773E+02
 20
3.95926
 40
1.8
  1
This drawing may not be used for commercial purposes without written authorisation.
100
AcDbText
  0
TEXT
  5
da
100
AcDbEntity
  8
199
100
AcDbText
  6
CONTINUOUS
 62
1
 10
-9.7741861E+01
 20
8.2773743E+01
 40
2.500293
  1
XX
100
AcDbText
  0
TEXT
  5
db
100
AcDbEntity
  8
199
100
AcDbText
  6
CONTINUOUS
 62
1
 10
-6.4736816E+01
 20
8.2773743E+01
 40
2.500293
  1
XX
100
AcDbText
  0
TEXT
  5
dc
100
AcDbEntity
  8
199
100
AcDbText
  6
CONTINUOUS
 62
1
 10
-3.1732612E+01
 20
8.2773743E+01
 40
2.500293
  1
XX
100
AcDbText
  0
TEXT
  5
dd
100
AcDbEntity
  8
199
100
AcDbText
  6
CONTINUOUS
 62
1
 10
-1.5274326E+02
 20
8.2773743E+01
 40
2.500293
  1
XX
100
AcDbText
  0
TEXT
  5
de
100
AcDbEntity
  8
199
100
AcDbText
  6
CONTINUOUS
 62
1
 10
-1.6474097E+02
 20
8.2773743E+01
 40
2.500293
  1
XX
100
AcDbText
  0
TEXT
  5
df
100
AcDbEntity
  8
199
100
AcDbText
  6
CONTINUOUS
 62
1
 10
-1.7673951E+02
 20
8.2773743E+01
 40
2.500293
  1
01
100
AcDbText
  0
TEXT
  5
e0
100
AcDbEntity
  8
199
100
AcDbText
  6
CONTINUOUS
 62
5
 10
-1.5380797E+02
 20
5.3861845E+01
 40
4.999745
  1
 
100
AcDbText
  0
POLYLINE
  5
e1
100
AcDbEntity
  8
199
100
AcDb2dPolyline
  6
CONTINUOUS
 62
2
 66
1
 40
2.0E-01
 41
2.0E-01
 70
0
  0
VERTEX
  5
e2
100
AcDbEntity
  8
199
100
AcDbVertex
100
AcDb2dVertex
 42
0.0
 10
-1.5006384E+02
 20
2.786233E+01
 70
0
  0
VERTEX
  5
e3
100
AcDbEntity
  8
199
100
AcDbVertex
100
AcDb2dVertex
 42
0.0
 10
-1.5006384E+02
 20
1.4138892E+01
 70
0
  0
SEQEND
  5
e4
100
AcDbEntity
  0
POLYLINE
  5
e5
100
AcDbEntity
  8
199
100
AcDb2dPolyline
  6
CONTINUOUS
 62
2
 66
1
 40
2.0E-01
 41
2.0E-01
 70
0
  0
VERTEX
  5
e6
100
AcDbEntity
  8
199
100
AcDbVertex
100
AcDb2dVertex
 42
0.0
 10
-1.6527248E+02
 20
1.4138892E+01
 70
0
  0
VERTEX
  5
e7
100
AcDbEntity
  8
199
100
AcDbVertex
100
AcDb2dVertex
 42
0.0
 10
-1.6527248E+02
 20
2.786233E+01
 70
0
  0
SEQEND
  5
e8
100
AcDbEntity
  0
POLYLINE
  5
e9
100
AcDbEntity
  8
199
100
AcDb2dPolyline
  6
CONTINUOUS
 62
2
 66
1
 40
2.0E-01
 41
2.0E-01
 70
0
  0
VERTEX
  5
ea
100
AcDbEntity
  8
199
100
AcDbVertex
100
AcDb2dVertex
 42
0.0
 10
-1.5766816E+02
 20
2.5327556E+01
 70
0
  0
VERTEX
  5
eb
100
AcDbEntity
  8
199
100
AcDbVertex
100
AcDb2dVertex
 42
0.0
 10
-1.5006384E+02
 20
2.786233E+01
 70
0
  0
SEQEND
  5
ec
100
AcDbEntity
  0
POLYLINE
  5
ed
100
AcDbEntity
  8
199
100
AcDb2dPolyline
  6
CONTINUOUS
 62
2
 66
1
 40
2.0E-01
 41
2.0E-01
 70
0
  0
VERTEX
  5
ee
100
AcDbEntity
  8
199
100
AcDbVertex
100
AcDb2dVertex
 42
0.0
 10
-1.553184E+02
 20
2.493565E+01
 70
0
  0
VERTEX
  5
ef
100
AcDbEntity
  8
199
100
AcDbVertex
100
AcDb2dVertex
 42
0.0
 10
-1.553184E+02
 20
2.1839929E+01
 70
0
  0
SEQEND
  5
f0
100
AcDbEntity
  0
POLYLINE
  5
f1
100
AcDbEntity
  8
199
100
AcDb2dPolyline
  6
CONTINUOUS
 62
2
 66
1
 40
2.0E-01
 41
2.0E-01
 70
0
  0
VERTEX
  5
f2
100
AcDbEntity
  8
199
100
AcDbVertex
100
AcDb2dVertex
 42
0.0
 10
-1.5251703E+02
 20
2.1839929E+01
 70
0
  0
VERTEX
  5
f3
100
AcDbEntity
  8
199
100
AcDbVertex
100
AcDb2dVertex
 42
0.0
 10
-1.5251703E+02
 20
2.493565E+01
 70
0
  0
SEQEND
  5
f4
100
AcDbEntity
  0
POLYLINE
  5
f5
100
AcDbEntity
  8
199
100
AcDb2dPolyline
  6
CONTINUOUS
 62
2
 66
1
 40
2.0E-01
 41
2.0E-01
 70
0
  0
VERTEX
  5
f6
100
AcDbEntity
  8
199
100
AcDbVertex
100
AcDb2dVertex
 42
0.0
 10
-1.5083671E+02
 20
2.493565E+01
 70
0
  0
VERTEX
  5
f7
100
AcDbEntity
  8
199
100
AcDbVertex
100
AcDb2dVertex
 42
0.0
 10
-1.5083671E+02
 20
1.7065572E+01
 70
0
  0
SEQEND
  5
f8
100
AcDbEntity
  0
TEXT
  5
f9
100
AcDbEntity
  8
199
100
AcDbText
  6
CONTINUOUS
 62
1
 10
-1.6337687E+02
 20
3.3752694E+01
 40
2.500293
  1
XX-XX-'XX
100
AcDbText
  0
TEXT
  5
fa
100
AcDbEntity
  8
199
100
AcDbText
  6
CONTINUOUS
 62
1
 10
-1.1573926E+02
 20
3.9751547E+01
 40
2.500293
  1
X.X
100
AcDbText
  0
POLYLINE
  5
fb
100
AcDbEntity
  8
199
100
AcDb2dPolyline
  6
CONTINUOUS
 62
5
 66
1
 40
4.0E-01
 41
4.0E-01
 70
0
  0
VERTEX
  5
fc
100
AcDbEntity
  8
199
100
AcDbVertex
100
AcDb2dVertex
 42
0.0
 10
-6.7999896E+01
 20
4.4000279E+01
 70
0
  0
VERTEX
  5
fd
100
AcDbEntity
  8
199
100
AcDbVertex
100
AcDb2dVertex
 42
0.0
 10
-6.7999896E+01
 20
7.2000533E+01
 70
0
  0
SEQEND
  5
fe
100
AcDbEntity
  0
POLYLINE
  5
ff
100
AcDbEntity
  8
199
100
AcDb2dPolyline
  6
CONTINUOUS
 62
3
 66
1
 40
2.0E-01
 41
2.0E-01
 70
0
  0
VERTEX
  5
100
100
AcDbEntity
  8
199
100
AcDbVertex
100
AcDb2dVertex
 42
0.0
 10
-6.7999896E+01
 20
7.2000533E+01
 70
0
  0
VERTEX
  5
101
100
AcDbEntity
  8
199
100
AcDbVertex
100
AcDb2dVertex
 42
0.0
 10
-6.7999896E+01
 20
8.0000966E+01
 70
0
  0
SEQEND
  5
102
100
AcDbEntity
  0
POLYLINE
  5
103
100
AcDbEntity
  8
199
100
AcDb2dPolyline
  6
CONTINUOUS
 62
3
 66
1
 40
3.0E-01
 41
3.0E-01
 70
0
  0
VERTEX
  5
104
100
AcDbEntity
  8
199
100
AcDbVertex
100
AcDb2dVertex
 42
0.0
 10
-6.7999896E+01
 20
7.2000533E+01
 70
0
  0
VERTEX
  5
105
100
AcDbEntity
  8
199
100
AcDbVertex
100
AcDb2dVertex
 42
0.0
 10
0.0
 20
7.2000533E+01
 70
0
  0
SEQEND
  5
106
100
AcDbEntity
  0
POLYLINE
  5
107
100
AcDbEntity
  8
199
100
AcDb2dPolyline
  6
CONTINUOUS
 62
5
 66
1
 40
4.0E-01
 41
4.0E-01
 70
0
  0
VERTEX
  5
108
100
AcDbEntity
  8
199
100
AcDbVertex
100
AcDb2dVertex
 42
0.0
 10
-5.299982E+01
 20
1.7000815E+01
 70
0
  0
VERTEX
  5
109
100
AcDbEntity
  8
199
100
AcDbVertex
100
AcDb2dVertex
 42
0.0
 10
0.0
 20
1.7000815E+01
 70
0
  0
SEQEND
  5
10a
100
AcDbEntity
  0
POLYLINE
  5
10b
100
AcDbEntity
  8
199
100
AcDb2dPolyline
  6
CONTINUOUS
 62
5
 66
1
 40
4.0E-01
 41
4.0E-01
 70
0
  0
VERTEX
  5
10c
100
AcDbEntity
  8
199
100
AcDbVertex
100
AcDb2dVertex
 42
0.0
 10
-1.8000007E+02
 20
7.2000533E+01
 70
0
  0
VERTEX
  5
10d
100
AcDbEntity
  8
199
100
AcDbVertex
100
AcDb2dVertex
 42
0.0
 10
-6.7999896E+01
 20
7.2000533E+01
 70
0
  0
SEQEND
  5
10e
100
AcDbEntity
  0
POLYLINE
  5
10f
100
AcDbEntity
  8
199
100
AcDb2dPolyline
  6
CONTINUOUS
 62
3
 66
1
 40
3.0E-01
 41
3.0E-01
 70
0
  0
VERTEX
  5
110
100
AcDbEntity
  8
199
100
AcDbVertex
100
AcDb2dVertex
 42
0.0
 10
-1.8000007E+02
 20
3.2000891E+01
 70
0
  0
VERTEX
  5
111
100
AcDbEntity
  8
199
100
AcDbVertex
100
AcDb2dVertex
 42
0.0
 10
-5.299982E+01
 20
3.2000891E+01
 70
0
  0
SEQEND
  5
112
100
AcDbEntity
  0
POLYLINE
  5
113
100
AcDbEntity
  8
199
100
AcDb2dPolyline
  6
CONTINUOUS
 62
3
 66
1
 40
2.0E-01
 41
2.0E-01
 70
0
  0
VERTEX
  5
114
100
AcDbEntity
  8
199
100
AcDbVertex
100
AcDb2dVertex
 42
0.0
 10
-9.0000456E+01
 20
3.8000585E+01
 70
0
  0
VERTEX
  5
115
100
AcDbEntity
  8
199
100
AcDbVertex
100
AcDb2dVertex
 42
0.0
 10
-1.8000007E+02
 20
3.8000585E+01
 70
0
  0
SEQEND
  5
116
100
AcDbEntity
  0
POLYLINE
  5
117
100
AcDbEntity
  8
199
100
AcDb2dPolyline
  6
CONTINUOUS
 62
5
 66
1
 40
4.0E-01
 41
4.0E-01
 70
0
  0
VERTEX
  5
118
100
AcDbEntity
  8
199
100
AcDbVertex
100
AcDb2dVertex
 42
0.0
 10
-1.8000007E+02
 20
4.4000279E+01
 70
0
  0
VERTEX
  5
119
100
AcDbEntity
  8
199
100
AcDbVertex
100
AcDb2dVertex
 42
0.0
 10
-6.7999896E+01
 20
4.4000279E+01
 70
0
  0
SEQEND
  5
11a
100
AcDbEntity
  0
POLYLINE
  5
11b
100
AcDbEntity
  8
199
100
AcDb2dPolyline
  6
CONTINUOUS
 62
5
 66
1
 40
4.0E-01
 41
4.0E-01
 70
0
  0
VERTEX
  5
11c
100
AcDbEntity
  8
199
100
AcDbVertex
100
AcDb2dVertex
 42
0.0
 10
-1.8000007E+02
 20
6.2001043E+01
 70
0
  0
VERTEX
  5
11d
100
AcDbEntity
  8
199
100
AcDbVertex
100
AcDb2dVertex
 42
0.0
 10
-6.7999896E+01
 20
6.2001043E+01
 70
0
  0
SEQEND
  5
11e
100
AcDbEntity
  0
POLYLINE
  5
11f
100
AcDbEntity
  8
199
100
AcDb2dPolyline
  6
CONTINUOUS
 62
3
 66
1
 40
2.0E-01
 41
2.0E-01
 70
0
  0
VERTEX
  5
120
100
AcDbEntity
  8
199
100
AcDbVertex
100
AcDb2dVertex
 42
0.0
 10
-1.3499984E+02
 20
4.4000279E+01
 70
0
  0
VERTEX
  5
121
100
AcDbEntity
  8
199
100
AcDbVertex
100
AcDb2dVertex
 42
0.0
 10
-1.3499984E+02
 20
1.0000331E+01
 70
0
  0
SEQEND
  5
122
100
AcDbEntity
  0
POLYLINE
  5
123
100
AcDbEntity
  8
199
100
AcDb2dPolyline
  6
CONTINUOUS
 62
3
 66
1
 40
2.0E-01
 41
2.0E-01
 70
0
  0
VERTEX
  5
124
100
AcDbEntity
  8
199
100
AcDbVertex
100
AcDb2dVertex
 42
0.0
 10
-9.0000456E+01
 20
3.2000891E+01
 70
0
  0
VERTEX
  5
125
100
AcDbEntity
  8
199
100
AcDbVertex
100
AcDb2dVertex
 42
0.0
 10
-9.0000456E+01
 20
4.4000279E+01
 70
0
  0
SEQEND
  5
126
100
AcDbEntity
  0
TEXT
  5
127
100
AcDbEntity
  8
199
100
AcDbText
  6
CONTINUOUS
 62
1
 10
-1.7799176E+02
 20
3.3752694E+01
 40
2.500293
  1
Date:
100
AcDbText
  0
TEXT
  5
128
100
AcDbEntity
  8
199
100
AcDbText
  6
CONTINUOUS
 62
1
 10
-1.7799176E+02
 20
3.9751547E+01
 40
2.500293
  1
Scale:
100
AcDbText
  0
TEXT
  5
129
100
AcDbEntity
  8
199
100
AcDbText
  6
CONTINUOUS
 62
1
 10
-1.6158301E+02
 20
3.9676698E+01
 40
2.500293
  1
X:X
100
AcDbText
  0
TEXT
  5
12a
100
AcDbEntity
  8
199
100
AcDbText
  6
CONTINUOUS
 62
1
 10
-1.3300751E+02
 20
3.9751547E+01
 40
2.500293
  1
Drawn:
100
AcDbText
  0
TEXT
  5
12b
100
AcDbEntity
  8
199
100
AcDbText
  6
CONTINUOUS
 62
1
 10
-1.3300751E+02
 20
3.3752694E+01
 40
2.500293
  1
Checked:
100
AcDbText
  0
POLYLINE
  5
12c
100
AcDbEntity
  8
199
100
AcDb2dPolyline
  6
CONTINUOUS
 62
5
 66
1
 40
4.0E-01
 41
4.0E-01
 70
0
  0
VERTEX
  5
12d
100
AcDbEntity
  8
199
100
AcDbVertex
100
AcDb2dVertex
 42
0.0
 10
-5.299982E+01
 20
1.7000815E+01
 70
0
  0
VERTEX
  5
12e
100
AcDbEntity
  8
199
100
AcDbVertex
100
AcDb2dVertex
 42
0.0
 10
-5.299982E+01
 20
3.2000891E+01
 70
0
  0
SEQEND
  5
12f
100
AcDbEntity
  0
TEXT
  5
130
100
AcDbEntity
  8
199
100
AcDbText
  6
CONTINUOUS
 62
1
 10
-8.7631359E+01
 20
3.2948698E+01
 40
1.79974
  1
Dim. in mm
100
AcDbText
  0
POLYLINE
  5
131
100
AcDbEntity
  8
199
100
AcDb2dPolyline
  6
CONTINUOUS
 62
3
 66
1
 40
2.0E-01
 41
2.0E-01
 70
0
  0
VERTEX
  5
132
100
AcDbEntity
  8
199
100
AcDbVertex
100
AcDb2dVertex
 42
9.9999992E-01
 10
-8.3502049E+01
 20
3.9862559E+01
 70
0
  0
VERTEX
  5
133
100
AcDbEntity
  8
199
100
AcDbVertex
100
AcDb2dVertex
 42
9.9999992E-01
 10
-8.0630875E+01
 20
3.9862559E+01
 70
0
  0
VERTEX
  5
134
100
AcDbEntity
  8
199
100
AcDbVertex
100
AcDb2dVertex
 42
0.0
 10
-8.3502049E+01
 20
3.9862559E+01
 70
0
  0
SEQEND
  5
135
100
AcDbEntity
  0
POLYLINE
  5
136
100
AcDbEntity
  8
199
100
AcDb2dPolyline
  6
CONTINUOUS
 62
3
 66
1
 40
2.0E-01
 41
2.0E-01
 70
0
  0
VERTEX
  5
137
100
AcDbEntity
  8
199
100
AcDbVertex
100
AcDb2dVertex
 42
9.9999992E-01
 10
-8.4767754E+01
 20
3.9862558E+01
 70
0
  0
VERTEX
  5
138
100
AcDbEntity
  8
199
100
AcDbVertex
100
AcDb2dVertex
 42
9.9999992E-01
 10
-7.936517E+01
 20
3.986256E+01
 70
0
  0
VERTEX
  5
139
100
AcDbEntity
  8
199
100
AcDbVertex
100
AcDb2dVertex
 42
0.0
 10
-8.4767754E+01
 20
3.9862558E+01
 70
0
  0
SEQEND
  5
13a
100
AcDbEntity
  0
POLYLINE
  5
13b
100
AcDbEntity
  8
199
100
AcDb2dPolyline
  6
CONTINUOUS
 62
3
 66
1
 40
2.0E-01
 41
2.0E-01
 70
0
  0
VERTEX
  5
13c
100
AcDbEntity
  8
199
100
AcDbVertex
100
AcDb2dVertex
 42
0.0
 10
-7.7446008E+01
 20
4.1298146E+01
 70
0
  0
VERTEX
  5
13d
100
AcDbEntity
  8
199
100
AcDbVertex
100
AcDb2dVertex
 42
0.0
 10
-7.2806211E+01
 20
4.2563851E+01
 70
0
  0
SEQEND
  5
13e
100
AcDbEntity
  0
POLYLINE
  5
13f
100
AcDbEntity
  8
199
100
AcDb2dPolyline
  6
CONTINUOUS
 62
3
 66
1
 40
2.0E-01
 41
2.0E-01
 70
0
  0
VERTEX
  5
140
100
AcDbEntity
  8
199
100
AcDbVertex
100
AcDb2dVertex
 42
0.0
 10
-7.7446008E+01
 20
3.8426972E+01
 70
0
  0
VERTEX
  5
141
100
AcDbEntity
  8
199
100
AcDbVertex
100
AcDb2dVertex
 42
0.0
 10
-7.2806211E+01
 20
3.7161267E+01
 70
0
  0
SEQEND
  5
142
100
AcDbEntity
  0
POLYLINE
  5
143
100
AcDbEntity
  8
199
100
AcDb2dPolyline
  6
CONTINUOUS
 62
3
 66
1
 40
2.0E-01
 41
2.0E-01
 70
0
  0
VERTEX
  5
144
100
AcDbEntity
  8
199
100
AcDbVertex
100
AcDb2dVertex
 42
0.0
 10
-7.2806211E+01
 20
3.7161267E+01
 70
0
  0
VERTEX
  5
145
100
AcDbEntity
  8
199
100
AcDbVertex
100
AcDb2dVertex
 42
0.0
 10
-7.2806211E+01
 20
4.2563851E+01
 70
0
  0
SEQEND
  5
146
100
AcDbEntity
  0
POLYLINE
  5
147
100
AcDbEntity
  8
199
100
AcDb2dPolyline
  6
CONTINUOUS
 62
3
 66
1
 40
2.0E-01
 41
2.0E-01
 70
0
  0
VERTEX
  5
148
100
AcDbEntity
  8
199
100
AcDbVertex
100
AcDb2dVertex
 42
0.0
 10
-7.7446008E+01
 20
4.1298146E+01
 70
0
  0
VERTEX
  5
149
100
AcDbEntity
  8
199
100
AcDbVertex
100
AcDb2dVertex
 42
0.0
 10
-7.7446008E+01
 20
3.8426972E+01
 70
0
  0
SEQEND
  5
14a
100
AcDbEntity
  0
POLYLINE
  5
14b
100
AcDbEntity
  8
199
100
AcDb2dPolyline
  6
CENTERLINE
 62
1
 66
1
 40
2.0E-01
 41
2.0E-01
 70
0
  0
VERTEX
  5
14c
100
AcDbEntity
  8
199
100
AcDbVertex
100
AcDb2dVertex
 42
0.0
 10
-8.1816685E+01
 20
3.9862559E+01
 70
0
  0
VERTEX
  5
14d
100
AcDbEntity
  8
199
100
AcDbVertex
100
AcDb2dVertex
 42
0.0
 10
-8.2316239E+01
 20
3.9862559E+01
 70
0
  0
SEQEND
  5
14e
100
AcDbEntity
  0
POLYLINE
  5
14f
100
AcDbEntity
  8
199
100
AcDb2dPolyline
  6
CENTERLINE
 62
1
 66
1
 40
2.0E-01
 41
2.0E-01
 70
0
  0
VERTEX
  5
150
100
AcDbEntity
  8
199
100
AcDbVertex
100
AcDb2dVertex
 42
0.0
 10
-8.2066462E+01
 20
4.0112336E+01
 70
0
  0
VERTEX
  5
151
100
AcDbEntity
  8
199
100
AcDbVertex
100
AcDb2dVertex
 42
0.0
 10
-8.2066462E+01
 20
3.9612782E+01
 70
0
  0
SEQEND
  5
152
100
AcDbEntity
  0
POLYLINE
  5
153
100
AcDbEntity
  8
199
100
AcDb2dPolyline
  6
CENTERLINE
 62
1
 66
1
 40
2.0E-01
 41
2.0E-01
 70
0
  0
VERTEX
  5
154
100
AcDbEntity
  8
199
100
AcDbVertex
100
AcDb2dVertex
 42
0.0
 10
-8.131629E+01
 20
3.9862559E+01
 70
0
  0
VERTEX
  5
155
100
AcDbEntity
  8
199
100
AcDbVertex
100
AcDb2dVertex
 42
0.0
 10
-7.8946352E+01
 20
3.9862559E+01
 70
0
  0
SEQEND
  5
156
100
AcDbEntity
  0
POLYLINE
  5
157
100
AcDbEntity
  8
199
100
AcDb2dPolyline
  6
CENTERLINE
 62
1
 66
1
 40
2.0E-01
 41
2.0E-01
 70
0
  0
VERTEX
  5
158
100
AcDbEntity
  8
199
100
AcDbVertex
100
AcDb2dVertex
 42
0.0
 10
-8.2066462E+01
 20
4.0612731E+01
 70
0
  0
VERTEX
  5
159
100
AcDbEntity
  8
199
100
AcDbVertex
100
AcDb2dVertex
 42
0.0
 10
-8.2066462E+01
 20
4.3064246E+01
 70
0
  0
SEQEND
  5
15a
100
AcDbEntity
  0
POLYLINE
  5
15b
100
AcDbEntity
  8
199
100
AcDb2dPolyline
  6
CENTERLINE
 62
1
 66
1
 40
2.0E-01
 41
2.0E-01
 70
0
  0
VERTEX
  5
15c
100
AcDbEntity
  8
199
100
AcDbVertex
100
AcDb2dVertex
 42
0.0
 10
-8.2816634E+01
 20
3.9862559E+01
 70
0
  0
VERTEX
  5
15d
100
AcDbEntity
  8
199
100
AcDbVertex
100
AcDb2dVertex
 42
0.0
 10
-8.5267308E+01
 20
3.9862559E+01
 70
0
  0
SEQEND
  5
15e
100
AcDbEntity
  0
POLYLINE
  5
15f
100
AcDbEntity
  8
199
100
AcDb2dPolyline
  6
CENTERLINE
 62
1
 66
1
 40
2.0E-01
 41
2.0E-01
 70
0
  0
VERTEX
  5
160
100
AcDbEntity
  8
199
100
AcDbVertex
100
AcDb2dVertex
 42
0.0
 10
-8.2066462E+01
 20
3.9112387E+01
 70
0
  0
VERTEX
  5
161
100
AcDbEntity
  8
199
100
AcDbVertex
100
AcDb2dVertex
 42
0.0
 10
-8.2066462E+01
 20
3.6661713E+01
 70
0
  0
SEQEND
  5
162
100
AcDbEntity
  0
POLYLINE
  5
163
100
AcDbEntity
  8
199
100
AcDb2dPolyline
  6
CENTERLINE
 62
1
 66
1
 40
2.0E-01
 41
2.0E-01
 70
0
  0
VERTEX
  5
164
100
AcDbEntity
  8
199
100
AcDbVertex
100
AcDb2dVertex
 42
0.0
 10
-7.8606588E+01
 20
3.9862559E+01
 70
0
  0
VERTEX
  5
165
100
AcDbEntity
  8
199
100
AcDbVertex
100
AcDb2dVertex
 42
0.0
 10
-7.8206272E+01
 20
3.9862559E+01
 70
0
  0
SEQEND
  5
166
100
AcDbEntity
  0
POLYLINE
  5
167
100
AcDbEntity
  8
199
100
AcDb2dPolyline
  6
CENTERLINE
 62
1
 66
1
 40
2.0E-01
 41
2.0E-01
 70
0
  0
VERTEX
  5
168
100
AcDbEntity
  8
199
100
AcDbVertex
100
AcDb2dVertex
 42
0.0
 10
-7.7906035E+01
 20
3.9862559E+01
 70
0
  0
VERTEX
  5
169
100
AcDbEntity
  8
199
100
AcDbVertex
100
AcDb2dVertex
 42
0.0
 10
-7.56059E+01
 20
3.9862559E+01
 70
0
  0
SEQEND
  5
16a
100
AcDbEntity
  0
POLYLINE
  5
16b
100
AcDbEntity
  8
199
100
AcDb2dPolyline
  6
CENTERLINE
 62
1
 66
1
 40
2.0E-01
 41
2.0E-01
 70
0
  0
VERTEX
  5
16c
100
AcDbEntity
  8
199
100
AcDbVertex
100
AcDb2dVertex
 42
0.0
 10
-7.5306504E+01
 20
3.9862559E+01
 70
0
  0
VERTEX
  5
16d
100
AcDbEntity
  8
199
100
AcDbVertex
100
AcDb2dVertex
 42
0.0
 10
-7.4906188E+01
 20
3.9862559E+01
 70
0
  0
SEQEND
  5
16e
100
AcDbEntity
  0
POLYLINE
  5
16f
100
AcDbEntity
  8
199
100
AcDb2dPolyline
  6
CENTERLINE
 62
1
 66
1
 40
2.0E-01
 41
2.0E-01
 70
0
  0
VERTEX
  5
170
100
AcDbEntity
  8
199
100
AcDbVertex
100
AcDb2dVertex
 42
0.0
 10
-7.4586608E+01
 20
3.9862559E+01
 70
0
  0
VERTEX
  5
171
100
AcDbEntity
  8
199
100
AcDbVertex
100
AcDb2dVertex
 42
0.0
 10
-7.2326E+01
 20
3.9862559E+01
 70
0
  0
SEQEND
  5
172
100
AcDbEntity
  0
POLYLINE
  5
173
100
AcDbEntity
  8
199
100
AcDb2dPolyline
  6
CONTINUOUS
 62
2
 66
1
 40
3.0E-01
 41
3.0E-01
 70
0
  0
VERTEX
  5
174
100
AcDbEntity
  8
199
100
AcDbVertex
100
AcDb2dVertex
 42
0.0
 10
-1.5766816E+02
 20
1.5406279E+01
 70
0
  0
VERTEX
  5
175
100
AcDbEntity
  8
199
100
AcDbVertex
100
AcDb2dVertex
 42
0.0
 10
-1.5006384E+02
 20
1.2871505E+01
 70
0
  0
SEQEND
  5
176
100
AcDbEntity
  0
POLYLINE
  5
177
100
AcDbEntity
  8
199
100
AcDb2dPolyline
  6
CONTINUOUS
 62
2
 66
1
 40
2.0E-01
 41
2.0E-01
 70
0
  0
VERTEX
  5
178
100
AcDbEntity
  8
199
100
AcDbVertex
100
AcDb2dVertex
 42
0.0
 10
-1.5766816E+02
 20
1.6673666E+01
 70
0
  0
VERTEX
  5
179
100
AcDbEntity
  8
199
100
AcDbVertex
100
AcDb2dVertex
 42
0.0
 10
-1.5006384E+02
 20
1.4138892E+01
 70
0
  0
SEQEND
  5
17a
100
AcDbEntity
  0
POLYLINE
  5
17b
100
AcDbEntity
  8
199
100
AcDb2dPolyline
  6
CONTINUOUS
 62
2
 66
1
 40
3.0E-01
 41
3.0E-01
 70
0
  0
VERTEX
  5
17c
100
AcDbEntity
  8
199
100
AcDbVertex
100
AcDb2dVertex
 42
0.0
 10
-1.6527248E+02
 20
1.2871505E+01
 70
0
  0
VERTEX
  5
17d
100
AcDbEntity
  8
199
100
AcDbVertex
100
AcDb2dVertex
 42
0.0
 10
-1.5766816E+02
 20
1.5406279E+01
 70
0
  0
SEQEND
  5
17e
100
AcDbEntity
  0
POLYLINE
  5
17f
100
AcDbEntity
  8
199
100
AcDb2dPolyline
  6
CONTINUOUS
 62
2
 66
1
 40
2.0E-01
 41
2.0E-01
 70
0
  0
VERTEX
  5
180
100
AcDbEntity
  8
199
100
AcDbVertex
100
AcDb2dVertex
 42
0.0
 10
-1.5251703E+02
 20
1.7065572E+01
 70
0
  0
VERTEX
  5
181
100
AcDbEntity
  8
199
100
AcDbVertex
100
AcDb2dVertex
 42
0.0
 10
-1.5251703E+02
 20
2.0160452E+01
 70
0
  0
SEQEND
  5
182
100
AcDbEntity
  0
POLYLINE
  5
183
100
AcDbEntity
  8
199
100
AcDb2dPolyline
  6
CONTINUOUS
 62
2
 66
1
 40
2.0E-01
 41
2.0E-01
 70
0
  0
VERTEX
  5
184
100
AcDbEntity
  8
199
100
AcDbVertex
100
AcDb2dVertex
 42
0.0
 10
-1.553184E+02
 20
2.0160452E+01
 70
0
  0
VERTEX
  5
185
100
AcDbEntity
  8
199
100
AcDbVertex
100
AcDb2dVertex
 42
0.0
 10
-1.553184E+02
 20
1.7065572E+01
 70
0
  0
SEQEND
  5
186
100
AcDbEntity
  0
POLYLINE
  5
187
100
AcDbEntity
  8
199
100
AcDb2dPolyline
  6
CONTINUOUS
 62
2
 66
1
 40
2.0E-01
 41
2.0E-01
 70
0
  0
VERTEX
  5
188
100
AcDbEntity
  8
199
100
AcDbVertex
100
AcDb2dVertex
 42
0.0
 10
-1.5699956E+02
 20
1.7065572E+01
 70
0
  0
VERTEX
  5
189
100
AcDbEntity
  8
199
100
AcDbVertex
100
AcDb2dVertex
 42
0.0
 10
-1.5699956E+02
 20
2.493565E+01
 70
0
  0
SEQEND
  5
18a
100
AcDbEntity
  0
POLYLINE
  5
18b
100
AcDbEntity
  8
199
100
AcDb2dPolyline
  6
CONTINUOUS
 62
2
 66
1
 40
3.0E-01
 41
3.0E-01
 70
0
  0
VERTEX
  5
18c
100
AcDbEntity
  8
199
100
AcDbVertex
100
AcDb2dVertex
 42
0.0
 10
-1.5766816E+02
 20
2.6594943E+01
 70
0
  0
VERTEX
  5
18d
100
AcDbEntity
  8
199
100
AcDbVertex
100
AcDb2dVertex
 42
0.0
 10
-1.5006384E+02
 20
2.9129717E+01
 70
0
  0
SEQEND
  5
18e
100
AcDbEntity
  0
POLYLINE
  5
18f
100
AcDbEntity
  8
199
100
AcDb2dPolyline
  6
CONTINUOUS
 62
2
 66
1
 40
3.0E-01
 41
3.0E-01
 70
0
  0
VERTEX
  5
190
100
AcDbEntity
  8
199
100
AcDbVertex
100
AcDb2dVertex
 42
0.0
 10
-1.6527248E+02
 20
2.9129717E+01
 70
0
  0
VERTEX
  5
191
100
AcDbEntity
  8
199
100
AcDbVertex
100
AcDb2dVertex
 42
0.0
 10
-1.5766816E+02
 20
2.6594943E+01
 70
0
  0
SEQEND
  5
192
100
AcDbEntity
  0
TEXT
  5
193
100
AcDbEntity
  8
199
100
AcDbText
  6
CONTINUOUS
 62
1
 10
-6.3915159E+01
 20
2.7491449E+01
 40
1.79974
  1
Size
100
AcDbText
  0
TEXT
  5
194
100
AcDbEntity
  8
199
100
AcDbText
  6
CONTINUOUS
 62
5
 10
-6.4493767E+01
 20
1.9324498E+01
 40
4.999745
  1
A
100
AcDbText
  0
TEXT
  5
195
100
AcDbEntity
  8
199
100
AcDbText
  6
CONTINUOUS
 62
1
 10
-6.6007567E+01
 20
1.1998547E+01
 40
1.79974
  1
Sheet No:     Number of sheets:
100
AcDbText
  0
TEXT
  5
196
100
AcDbEntity
  8
199
100
AcDbText
  6
CONTINUOUS
 62
3
 10
-5.9504114E+01
 20
1.9324498E+01
 40
3.500242
  1
0
100
AcDbText
  0
TEXT
  5
197
100
AcDbEntity
  8
199
100
AcDbText
  6
CONTINUOUS
 62
1
 10
-5.1000763E+01
 20
2.7491449E+01
 40
1.79974
  1
Identification No.:
100
AcDbText
  0
TEXT
  5
198
100
AcDbEntity
  8
199
100
AcDbText
  6
CONTINUOUS
 62
5
 10
-5.1000763E+01
 20
1.9305996E+01
 40
3.500242
  1
LHCB-TV....
100
AcDbText
  0
POLYLINE
  5
199
100
AcDbEntity
  8
199
100
AcDb2dPolyline
  6
CONTINUOUS
 62
3
 66
1
 40
3.0E-01
 41
3.0E-01
 70
0
  0
VERTEX
  5
19a
100
AcDbEntity
  8
199
100
AcDbVertex
100
AcDb2dVertex
 42
0.0
 10
-6.7999896E+01
 20
1.7000815E+01
 70
0
  0
VERTEX
  5
19b
100
AcDbEntity
  8
199
100
AcDbVertex
100
AcDb2dVertex
 42
0.0
 10
-5.299982E+01
 20
1.7000815E+01
 70
0
  0
SEQEND
  5
19c
100
AcDbEntity
  0
TEXT
  5
19d
100
AcDbEntity
  8
199
100
AcDbText
  6
CONTINUOUS
 62
3
 10
-4.8477763E+01
 20
1.1998547E+01
 40
2.500293
  1
X
100
AcDbText
  0
TEXT
  5
19e
100
AcDbEntity
  8
199
100
AcDbText
  6
CONTINUOUS
 62
3
 10
-8.801065
 20
1.1998547E+01
 40
2.500293
  1
X
100
AcDbText
  0
TEXT
  5
19f
100
AcDbEntity
  8
199
100
AcDbText
  6
CONTINUOUS
 62
1
 10
-6.3746959E+01
 20
4.9993245E+01
 40
2.500293
  1
Revision
 50
9.0E+01
100
AcDbText
  0
POLYLINE
  5
1a0
100
AcDbEntity
  8
199
100
AcDb2dPolyline
  6
CONTINUOUS
 62
3
 66
1
 40
2.0E-01
 41
2.0E-01
 70
0
  0
VERTEX
  5
1a1
100
AcDbEntity
  8
199
100
AcDbVertex
100
AcDb2dVertex
 42
0.0
 10
-6.2000202E+01
 20
7.2000533E+01
 70
0
  0
VERTEX
  5
1a2
100
AcDbEntity
  8
199
100
AcDbVertex
100
AcDb2dVertex
 42
0.0
 10
-6.2000202E+01
 20
4.8000916E+01
 70
0
  0
SEQEND
  5
1a3
100
AcDbEntity
  0
POLYLINE
  5
1a4
100
AcDbEntity
  8
199
100
AcDb2dPolyline
  6
CONTINUOUS
 62
3
 66
1
 40
2.0E-01
 41
2.0E-01
 70
0
  0
VERTEX
  5
1a5
100
AcDbEntity
  8
199
100
AcDbVertex
100
AcDb2dVertex
 42
0.0
 10
-5.6000508E+01
 20
7.2000533E+01
 70
0
  0
VERTEX
  5
1a6
100
AcDbEntity
  8
199
100
AcDbVertex
100
AcDb2dVertex
 42
0.0
 10
-5.6000508E+01
 20
4.8000916E+01
 70
0
  0
SEQEND
  5
1a7
100
AcDbEntity
  0
POLYLINE
  5
1a8
100
AcDbEntity
  8
199
100
AcDb2dPolyline
  6
CONTINUOUS
 62
3
 66
1
 40
2.0E-01
 41
2.0E-01
 70
0
  0
VERTEX
  5
1a9
100
AcDbEntity
  8
199
100
AcDbVertex
100
AcDb2dVertex
 42
0.0
 10
-6.2000202E+01
 20
5.400061E+01
 70
0
  0
VERTEX
  5
1aa
100
AcDbEntity
  8
199
100
AcDbVertex
100
AcDb2dVertex
 42
0.0
 10
0.0
 20
5.400061E+01
 70
0
  0
SEQEND
  5
1ab
100
AcDbEntity
  0
POLYLINE
  5
1ac
100
AcDbEntity
  8
199
100
AcDb2dPolyline
  6
CONTINUOUS
 62
3
 66
1
 40
2.0E-01
 41
2.0E-01
 70
0
  0
VERTEX
  5
1ad
100
AcDbEntity
  8
199
100
AcDbVertex
100
AcDb2dVertex
 42
0.0
 10
-6.2000202E+01
 20
6.0000304E+01
 70
0
  0
VERTEX
  5
1ae
100
AcDbEntity
  8
199
100
AcDbVertex
100
AcDb2dVertex
 42
0.0
 10
0.0
 20
6.0000304E+01
 70
0
  0
SEQEND
  5
1af
100
AcDbEntity
  0
POLYLINE
  5
1b0
100
AcDbEntity
  8
199
100
AcDb2dPolyline
  6
CONTINUOUS
 62
3
 66
1
 40
2.0E-01
 41
2.0E-01
 70
0
  0
VERTEX
  5
1b1
100
AcDbEntity
  8
199
100
AcDbVertex
100
AcDb2dVertex
 42
0.0
 10
-6.2000202E+01
 20
6.6000839E+01
 70
0
  0
VERTEX
  5
1b2
100
AcDbEntity
  8
199
100
AcDbVertex
100
AcDb2dVertex
 42
0.0
 10
0.0
 20
6.6000839E+01
 70
0
  0
SEQEND
  5
1b3
100
AcDbEntity
  0
TEXT
  5
1b4
100
AcDbEntity
  8
199
100
AcDbText
  6
CONTINUOUS
 62
1
 10
-6.0251763E+01
 20
6.1748743E+01
 40
2.500293
  1
A
100
AcDbText
  0
TEXT
  5
1b5
100
AcDbEntity
  8
199
100
AcDbText
  6
CONTINUOUS
 62
1
 10
-6.0251763E+01
 20
5.5749049E+01
 40
2.500293
  1
B
100
AcDbText
  0
TEXT
  5
1b6
100
AcDbEntity
  8
199
100
AcDbText
  6
CONTINUOUS
 62
1
 10
-6.0251763E+01
 20
4.9750196E+01
 40
2.500293
  1
C
100
AcDbText
  0
TEXT
  5
1b7
100
AcDbEntity
  8
199
100
AcDbText
  6
CONTINUOUS
 62
1
 10
-4.5991767E+01
 20
6.7747596E+01
 40
2.500293
  1
Date
100
AcDbText
  0
POLYLINE
  5
1b8
100
AcDbEntity
  8
199
100
AcDb2dPolyline
  6
CONTINUOUS
 62
3
 66
1
 40
2.0E-01
 41
2.0E-01
 70
0
  0
VERTEX
  5
1b9
100
AcDbEntity
  8
199
100
AcDbVertex
100
AcDb2dVertex
 42
0.0
 10
-2.649991E+01
 20
4.8000916E+01
 70
0
  0
VERTEX
  5
1ba
100
AcDbEntity
  8
199
100
AcDbVertex
100
AcDb2dVertex
 42
0.0
 10
-2.649991E+01
 20
7.2000533E+01
 70
0
  0
SEQEND
  5
1bb
100
AcDbEntity
  0
TEXT
  5
1bc
100
AcDbEntity
  8
199
100
AcDbText
  6
CONTINUOUS
 62
1
 10
-1.825811E+01
 20
6.7747596E+01
 40
2.500293
  1
Name
100
AcDbText
  0
POLYLINE
  5
1bd
100
AcDbEntity
  8
199
100
AcDb2dPolyline
  6
CONTINUOUS
 62
3
 66
1
 40
3.0E-01
 41
3.0E-01
 70
0
  0
VERTEX
  5
1be
100
AcDbEntity
  8
199
100
AcDbVertex
100
AcDb2dVertex
 42
0.0
 10
-1.8000007E+02
 20
8.0000966E+01
 70
0
  0
VERTEX
  5
1bf
100
AcDbEntity
  8
199
100
AcDbVertex
100
AcDb2dVertex
 42
0.0
 10
0.0
 20
8.0000966E+01
 70
0
  0
SEQEND
  5
1c0
100
AcDbEntity
  0
POLYLINE
  5
1c1
100
AcDbEntity
  8
199
100
AcDb2dPolyline
  6
CONTINUOUS
 62
3
 66
1
 40
2.0E-01
 41
2.0E-01
 70
0
  0
VERTEX
  5
1c2
100
AcDbEntity
  8
199
100
AcDbVertex
100
AcDb2dVertex
 42
0.0
 10
-1.8000007E+02
 20
8.8000558E+01
 70
0
  0
VERTEX
  5
1c3
100
AcDbEntity
  8
199
100
AcDbVertex
100
AcDb2dVertex
 42
0.0
 10
0.0
 20
8.8000558E+01
 70
0
  0
SEQEND
  5
1c4
100
AcDbEntity
  0
POLYLINE
  5
1c5
100
AcDbEntity
  8
199
100
AcDb2dPolyline
  6
CONTINUOUS
 62
3
 66
1
 40
2.0E-01
 41
2.0E-01
 70
0
  0
VERTEX
  5
1c6
100
AcDbEntity
  8
199
100
AcDbVertex
100
AcDb2dVertex
 42
0.0
 10
-1.6799984E+02
 20
7.2000533E+01
 70
0
  0
VERTEX
  5
1c7
100
AcDbEntity
  8
199
100
AcDbVertex
100
AcDb2dVertex
 42
0.0
 10
-1.6799984E+02
 20
8.0000966E+01
 70
0
  0
SEQEND
  5
1c8
100
AcDbEntity
  0
POLYLINE
  5
1c9
100
AcDbEntity
  8
199
100
AcDb2dPolyline
  6
CONTINUOUS
 62
3
 66
1
 40
2.0E-01
 41
2.0E-01
 70
0
  0
VERTEX
  5
1ca
100
AcDbEntity
  8
199
100
AcDbVertex
100
AcDb2dVertex
 42
0.0
 10
-1.5600045E+02
 20
7.2000533E+01
 70
0
  0
VERTEX
  5
1cb
100
AcDbEntity
  8
199
100
AcDbVertex
100
AcDb2dVertex
 42
0.0
 10
-1.5600045E+02
 20
8.0000966E+01
 70
0
  0
SEQEND
  5
1cc
100
AcDbEntity
  0
TEXT
  5
1cd
100
AcDbEntity
  8
199
100
AcDbText
  6
CONTINUOUS
 62
1
 10
-1.7849636E+02
 20
7.6493996E+01
 40
2.500293
  1
PART
100
AcDbText
  0
TEXT
  5
1ce
100
AcDbEntity
  8
199
100
AcDbText
  6
CONTINUOUS
 62
1
 10
-1.7664616E+02
 20
7.29988E+01
 40
2.500293
  1
NO.
100
AcDbText
  0
TEXT
  5
1cf
100
AcDbEntity
  8
199
100
AcDbText
  6
CONTINUOUS
 62
1
 10
-1.6601256E+02
 20
7.6493996E+01
 40
2.500293
  1
NUM-
100
AcDbText
  0
TEXT
  5
1d0
100
AcDbEntity
  8
199
100
AcDbText
  6
CONTINUOUS
 62
1
 10
-1.6576951E+02
 20
7.29988E+01
 40
2.500293
  1
BER
100
AcDbText
  0
POLYLINE
  5
1d1
100
AcDbEntity
  8
199
100
AcDb2dPolyline
  6
CONTINUOUS
 62
3
 66
1
 40
2.0E-01
 41
2.0E-01
 70
0
  0
VERTEX
  5
1d2
100
AcDbEntity
  8
199
100
AcDbVertex
100
AcDb2dVertex
 42
0.0
 10
-1.0099989E+02
 20
7.2000533E+01
 70
0
  0
VERTEX
  5
1d3
100
AcDbEntity
  8
199
100
AcDbVertex
100
AcDb2dVertex
 42
0.0
 10
-1.0099989E+02
 20
8.0000966E+01
 70
0
  0
SEQEND
  5
1d4
100
AcDbEntity
  0
POLYLINE
  5
1d5
100
AcDbEntity
  8
199
100
AcDb2dPolyline
  6
CONTINUOUS
 62
3
 66
1
 40
2.0E-01
 41
2.0E-01
 70
0
  0
VERTEX
  5
1d6
100
AcDbEntity
  8
199
100
AcDbVertex
100
AcDb2dVertex
 42
0.0
 10
-6.7999896E+01
 20
1.0000331E+01
 70
0
  0
VERTEX
  5
1d7
100
AcDbEntity
  8
199
100
AcDbVertex
100
AcDb2dVertex
 42
0.0
 10
-6.7999896E+01
 20
4.4000279E+01
 70
0
  0
SEQEND
  5
1d8
100
AcDbEntity
  0
POLYLINE
  5
1d9
100
AcDbEntity
  8
199
100
AcDb2dPolyline
  6
CONTINUOUS
 62
3
 66
1
 40
2.0E-01
 41
2.0E-01
 70
0
  0
VERTEX
  5
1da
100
AcDbEntity
  8
199
100
AcDbVertex
100
AcDb2dVertex
 42
0.0
 10
-3.4999897E+01
 20
7.2000533E+01
 70
0
  0
VERTEX
  5
1db
100
AcDbEntity
  8
199
100
AcDbVertex
100
AcDb2dVertex
 42
0.0
 10
-3.4999897E+01
 20
8.0000966E+01
 70
0
  0
SEQEND
  5
1dc
100
AcDbEntity
  0
TEXT
  5
1dd
100
AcDbEntity
  8
199
100
AcDbText
  6
CONTINUOUS
 62
1
 10
-1.3500741E+02
 20
7.4755649E+01
 40
2.500293
  1
TITLE
100
AcDbText
  0
TEXT
  5
1de
100
AcDbEntity
  8
199
100
AcDbText
  6
CONTINUOUS
 62
1
 10
-9.4508216E+01
 20
7.4755649E+01
 40
2.500293
  1
MATERIAL
100
AcDbText
  0
TEXT
  5
1df
100
AcDbEntity
  8
199
100
AcDbText
  6
CONTINUOUS
 62
1
 10
-6.249471E+01
 20
7.4755649E+01
 40
2.500293
  1
SIZE/NOTE
100
AcDbText
  0
TEXT
  5
1e0
100
AcDbEntity
  8
199
100
AcDbText
  6
CONTINUOUS
 62
1
 10
-3.625551E+01
 20
7.4755649E+01
 40
2.500293
  1
 I.D. NO./NORM
100
AcDbText
  0
POLYLINE
  5
1e1
100
AcDbEntity
  8
199
100
AcDb2dPolyline
  6
CONTINUOUS
 62
3
 66
1
 40
2.0E-01
 41
2.0E-01
 70
0
  0
VERTEX
  5
1e2
100
AcDbEntity
  8
199
100
AcDbVertex
100
AcDb2dVertex
 42
0.0
 10
-9.0000456E+01
 20
3.6000687E+01
 70
0
  0
VERTEX
  5
1e3
100
AcDbEntity
  8
199
100
AcDbVertex
100
AcDb2dVertex
 42
0.0
 10
-6.7999896E+01
 20
3.6000687E+01
 70
0
  0
SEQEND
  5
1e4
100
AcDbEntity
  0
POLYLINE
  5
1e5
100
AcDbEntity
  8
199
100
AcDb2dPolyline
  6
CONTINUOUS
 62
2
 66
1
 40
2.0E-01
 41
2.0E-01
 70
0
  0
VERTEX
  5
1e6
100
AcDbEntity
  8
199
100
AcDbVertex
100
AcDb2dVertex
 42
0.0
 10
-1.7716842E+02
 20
1.7500369E+01
 70
0
  0
VERTEX
  5
1e7
100
AcDbEntity
  8
199
100
AcDbVertex
100
AcDb2dVertex
 42
0.0
 10
-1.7716842E+02
 20
2.4500853E+01
 70
0
  0
SEQEND
  5
1e8
100
AcDbEntity
  0
POLYLINE
  5
1e9
100
AcDbEntity
  8
199
100
AcDb2dPolyline
  6
CONTINUOUS
 62
2
 66
1
 40
2.0E-01
 41
2.0E-01
 70
0
  0
VERTEX
  5
1ea
100
AcDbEntity
  8
199
100
AcDbVertex
100
AcDb2dVertex
 42
0.0
 10
-1.7266823E+02
 20
1.9349728E+01
 70
0
  0
VERTEX
  5
1eb
100
AcDbEntity
  8
199
100
AcDbVertex
100
AcDb2dVertex
 42
0.0
 10
-1.7266823E+02
 20
2.4500853E+01
 70
0
  0
SEQEND
  5
1ec
100
AcDbEntity
  0
POLYLINE
  5
1ed
100
AcDbEntity
  8
199
100
AcDb2dPolyline
  6
CONTINUOUS
 62
2
 66
1
 40
2.0E-01
 41
2.0E-01
 70
0
  0
VERTEX
  5
1ee
100
AcDbEntity
  8
199
100
AcDbVertex
100
AcDb2dVertex
 42
0.0
 10
-1.6816804E+02
 20
1.7500369E+01
 70
0
  0
VERTEX
  5
1ef
100
AcDbEntity
  8
199
100
AcDbVertex
100
AcDb2dVertex
 42
0.0
 10
-1.6816804E+02
 20
2.4500853E+01
 70
0
  0
SEQEND
  5
1f0
100
AcDbEntity
  0
POLYLINE
  5
1f1
100
AcDbEntity
  8
199
100
AcDb2dPolyline
  6
CONTINUOUS
 62
2
 66
1
 40
2.0E-01
 41
2.0E-01
 70
0
  0
VERTEX
  5
1f2
100
AcDbEntity
  8
199
100
AcDbVertex
100
AcDb2dVertex
 42
0.0
 10
-1.4916817E+02
 20
1.7500369E+01
 70
0
  0
VERTEX
  5
1f3
100
AcDbEntity
  8
199
100
AcDbVertex
100
AcDb2dVertex
 42
0.0
 10
-1.4916817E+02
 20
2.4500853E+01
 70
0
  0
SEQEND
  5
1f4
100
AcDbEntity
  0
POLYLINE
  5
1f5
100
AcDbEntity
  8
199
100
AcDb2dPolyline
  6
CONTINUOUS
 62
2
 66
1
 40
2.0E-01
 41
2.0E-01
 70
0
  0
VERTEX
  5
1f6
100
AcDbEntity
  8
199
100
AcDbVertex
100
AcDb2dVertex
 42
0.0
 10
-1.4216769E+02
 20
1.7500369E+01
 70
0
  0
VERTEX
  5
1f7
100
AcDbEntity
  8
199
100
AcDbVertex
100
AcDb2dVertex
 42
0.0
 10
-1.4216769E+02
 20
2.4500853E+01
 70
0
  0
SEQEND
  5
1f8
100
AcDbEntity
  0
POLYLINE
  5
1f9
100
AcDbEntity
  8
199
100
AcDb2dPolyline
  6
CONTINUOUS
 62
2
 66
1
 40
2.0E-01
 41
2.0E-01
 70
0
  0
VERTEX
  5
1fa
100
AcDbEntity
  8
199
100
AcDbVertex
100
AcDb2dVertex
 42
0.0
 10
-1.7616848E+02
 20
2.2945003E+01
 70
0
  0
VERTEX
  5
1fb
100
AcDbEntity
  8
199
100
AcDbVertex
100
AcDb2dVertex
 42
0.0
 10
-1.7266823E+02
 20
1.7500369E+01
 70
0
  0
SEQEND
  5
1fc
100
AcDbEntity
  0
POLYLINE
  5
1fd
100
AcDbEntity
  8
199
100
AcDb2dPolyline
  6
CONTINUOUS
 62
2
 66
1
 40
2.0E-01
 41
2.0E-01
 70
0
  0
VERTEX
  5
1fe
100
AcDbEntity
  8
199
100
AcDbVertex
100
AcDb2dVertex
 42
0.0
 10
-1.7616848E+02
 20
1.7500369E+01
 70
0
  0
VERTEX
  5
1ff
100
AcDbEntity
  8
199
100
AcDbVertex
100
AcDb2dVertex
 42
0.0
 10
-1.7616848E+02
 20
2.2945003E+01
 70
0
  0
SEQEND
  5
200
100
AcDbEntity
  0
POLYLINE
  5
201
100
AcDbEntity
  8
199
100
AcDb2dPolyline
  6
CONTINUOUS
 62
2
 66
1
 40
2.0E-01
 41
2.0E-01
 70
0
  0
VERTEX
  5
202
100
AcDbEntity
  8
199
100
AcDbVertex
100
AcDb2dVertex
 42
0.0
 10
-1.7597925E+02
 20
2.4500853E+01
 70
0
  0
VERTEX
  5
203
100
AcDbEntity
  8
199
100
AcDbVertex
100
AcDb2dVertex
 42
0.0
 10
-1.7266823E+02
 20
1.9349728E+01
 70
0
  0
SEQEND
  5
204
100
AcDbEntity
  0
POLYLINE
  5
205
100
AcDbEntity
  8
199
100
AcDb2dPolyline
  6
CONTINUOUS
 62
2
 66
1
 40
2.0E-01
 41
2.0E-01
 70
0
  0
VERTEX
  5
206
100
AcDbEntity
  8
199
100
AcDbVertex
100
AcDb2dVertex
 42
0.0
 10
-1.7166828E+02
 20
1.7500369E+01
 70
0
  0
VERTEX
  5
207
100
AcDbEntity
  8
199
100
AcDbVertex
100
AcDb2dVertex
 42
0.0
 10
-1.7166828E+02
 20
2.4500853E+01
 70
0
  0
SEQEND
  5
208
100
AcDbEntity
  0
POLYLINE
  5
209
100
AcDbEntity
  8
199
100
AcDb2dPolyline
  6
CONTINUOUS
 62
2
 66
1
 40
2.0E-01
 41
2.0E-01
 70
0
  0
VERTEX
  5
20a
100
AcDbEntity
  8
199
100
AcDbVertex
100
AcDb2dVertex
 42
0.0
 10
-1.6716809E+02
 20
1.7500369E+01
 70
0
  0
VERTEX
  5
20b
100
AcDbEntity
  8
199
100
AcDbVertex
100
AcDb2dVertex
 42
0.0
 10
-1.6716809E+02
 20
2.4500853E+01
 70
0
  0
SEQEND
  5
20c
100
AcDbEntity
  0
POLYLINE
  5
20d
100
AcDbEntity
  8
199
100
AcDb2dPolyline
  6
CONTINUOUS
 62
2
 66
1
 40
2.0E-01
 41
2.0E-01
 70
0
  0
VERTEX
  5
20e
100
AcDbEntity
  8
199
100
AcDbVertex
100
AcDb2dVertex
 42
0.0
 10
-1.4116774E+02
 20
1.7500369E+01
 70
0
  0
VERTEX
  5
20f
100
AcDbEntity
  8
199
100
AcDbVertex
100
AcDb2dVertex
 42
0.0
 10
-1.4116774E+02
 20
2.0501057E+01
 70
0
  0
SEQEND
  5
210
100
AcDbEntity
  0
TEXT
  5
211
100
AcDbEntity
  8
199
100
AcDbText
  6
CONTINUOUS
 62
1
 10
-1.7750566E+02
 20
5.39922E+01
 40
2.500293
  1
Title:
100
AcDbText
  0
TEXT
  5
212
100
AcDbEntity
  8
199
100
AcDbText
  6
CONTINUOUS
 62
5
 10
-1.5894816E+02
 20
5.3580951E+01
 40
4.999745
  1
X
100
AcDbText
  0
TEXT
  5
213
100
AcDbEntity
  8
199
100
AcDbText
  6
CONTINUOUS
 62
3
 10
-1.5599457E+02
 20
6.5243098E+01
 40
3.500242
  1
LHCB VERTEX DETECTOR
100
AcDbText
  0
TEXT
  5
214
100
AcDbEntity
  8
199
100
AcDbText
  6
CONTINUOUS
 62
1
 10
-1.7750566E+02
 20
6.5747698E+01
 40
2.500293
  1
Project:
100
AcDbText
  0
POLYLINE
  5
215
100
AcDbEntity
  8
199
100
AcDb2dPolyline
  6
CONTINUOUS
 62
5
 66
1
 40
4.0E-01
 41
4.0E-01
 70
0
  0
VERTEX
  5
216
100
AcDbEntity
  8
199
100
AcDbVertex
100
AcDb2dVertex
 42
0.0
 10
-5.299982E+01
 20
3.2000891E+01
 70
0
  0
VERTEX
  5
217
100
AcDbEntity
  8
199
100
AcDbVertex
100
AcDb2dVertex
 42
0.0
 10
0.0
 20
3.2000891E+01
 70
0
  0
SEQEND
  5
218
100
AcDbEntity
  0
POLYLINE
  5
219
100
AcDbEntity
  8
199
100
AcDb2dPolyline
  6
CONTINUOUS
 62
3
 66
1
 40
3.0E-01
 41
3.0E-01
 70
0
  0
VERTEX
  5
21a
100
AcDbEntity
  8
199
100
AcDbVertex
100
AcDb2dVertex
 42
0.0
 10
-6.7999896E+01
 20
4.8000916E+01
 70
0
  0
VERTEX
  5
21b
100
AcDbEntity
  8
199
100
AcDbVertex
100
AcDb2dVertex
 42
0.0
 10
0.0
 20
4.8000916E+01
 70
0
  0
SEQEND
  5
21c
100
AcDbEntity
  0
POLYLINE
  5
21d
100
AcDbEntity
  8
199
100
AcDb2dPolyline
  6
CONTINUOUS
 62
3
 66
1
 40
2.0E-01
 41
2.0E-01
 70
0
  0
VERTEX
  5
21e
100
AcDbEntity
  8
199
100
AcDbVertex
100
AcDb2dVertex
 42
0.0
 10
-6.7999896E+01
 20
4.0000483E+01
 70
0
  0
VERTEX
  5
21f
100
AcDbEntity
  8
199
100
AcDbVertex
100
AcDb2dVertex
 42
0.0
 10
-6.7999896E+01
 20
4.0000483E+01
 70
0
  0
SEQEND
  5
220
100
AcDbEntity
  0
POLYLINE
  5
221
100
AcDbEntity
  8
199
100
AcDb2dPolyline
  6
CONTINUOUS
 62
3
 66
1
 40
2.0E-01
 41
2.0E-01
 70
0
  0
VERTEX
  5
222
100
AcDbEntity
  8
199
100
AcDbVertex
100
AcDb2dVertex
 42
0.0
 10
-4.300033E+01
 20
3.2000891E+01
 70
0
  0
VERTEX
  5
223
100
AcDbEntity
  8
199
100
AcDbVertex
100
AcDb2dVertex
 42
0.0
 10
-4.300033E+01
 20
4.8000916E+01
 70
0
  0
SEQEND
  5
224
100
AcDbEntity
  0
POLYLINE
  5
225
100
AcDbEntity
  8
199
100
AcDb2dPolyline
  6
CONTINUOUS
 62
3
 66
1
 40
2.0E-01
 41
2.0E-01
 70
0
  0
VERTEX
  5
226
100
AcDbEntity
  8
199
100
AcDbVertex
100
AcDb2dVertex
 42
0.0
 10
-1.7999923E+01
 20
3.2000891E+01
 70
0
  0
VERTEX
  5
227
100
AcDbEntity
  8
199
100
AcDbVertex
100
AcDb2dVertex
 42
0.0
 10
-1.7999923E+01
 20
4.8000916E+01
 70
0
  0
SEQEND
  5
228
100
AcDbEntity
  0
TEXT
  5
229
100
AcDbEntity
  8
199
100
AcDbText
  6
CONTINUOUS
 62
3
 10
-6.804531E+01
 20
3.3322943E+01
 40
2.500293
  1
ISO-2768-mK-E
 41
7.5983855E-01
100
AcDbText
  0
TEXT
  5
22a
100
AcDbEntity
  8
199
100
AcDbText
  6
CONTINUOUS
 62
3
 10
-4.0572363E+01
 20
3.3322943E+01
 40
2.500293
  1
ISO-8015-E
 41
7.9986546E-01
100
AcDbText
  0
TEXT
  5
22b
100
AcDbEntity
  8
199
100
AcDbText
  6
CONTINUOUS
 62
1
 10
-4.2272865E+01
 20
4.5488849E+01
 40
1.79974
  1
Geometrical tolerances
 41
6.0E-01
100
AcDbText
  0
TEXT
  5
22c
100
AcDbEntity
  8
199
100
AcDbText
  6
CONTINUOUS
 62
1
 10
-3.5115114E+01
 20
4.2797649E+01
 40
1.79974
  1
unless 
 41
7.5E-01
100
AcDbText
  0
TEXT
  5
22d
100
AcDbEntity
  8
199
100
AcDbText
  6
CONTINUOUS
 62
1
 10
-4.1861616E+01
 20
4.0087947E+01
 40
1.79974
  1
otherwise stated 
 41
7.5E-01
100
AcDbText
  0
TEXT
  5
22e
100
AcDbEntity
  8
199
100
AcDbText
  6
CONTINUOUS
 62
1
 10
-3.8497616E+01
 20
3.7396747E+01
 40
1.79974
  1
according to
 41
7.5E-01
100
AcDbText
  0
TEXT
  5
22f
100
AcDbEntity
  8
199
100
AcDbText
  6
CONTINUOUS
 62
3
 10
-1.7061367E+01
 20
3.3322943E+01
 40
2.500293
  1
DIN 1302
 41
7.9986546E-01
100
AcDbText
  0
TEXT
  5
230
100
AcDbEntity
  8
199
100
AcDbText
  6
CONTINUOUS
 62
1
 10
-1.4819261E+01
 20
4.5488849E+01
 40
1.79974
  1
Roughness
 41
7.5E-01
100
AcDbText
  0
TEXT
  5
231
100
AcDbEntity
  8
199
100
AcDbText
  6
CONTINUOUS
 62
1
 10
-1.3473661E+01
 20
4.2797649E+01
 40
1.79974
  1
unless 
 41
7.5E-01
100
AcDbText
  0
TEXT
  5
232
100
AcDbEntity
  8
199
100
AcDbText
  6
CONTINUOUS
 62
1
 10
-1.7024363E+01
 20
4.0087947E+01
 40
1.79974
  1
otherwise stated 
 41
5.5E-01
100
AcDbText
  0
TEXT
  5
233
100
AcDbEntity
  8
199
100
AcDbText
  6
CONTINUOUS
 62
1
 10
-1.6594612E+01
 20
3.7396747E+01
 40
1.79974
  1
according to
 41
7.0E-01
100
AcDbText
  0
TEXT
  5
234
100
AcDbEntity
  8
199
100
AcDbText
  6
CONTINUOUS
 62
1
 10
-6.754071E+01
 20
4.5488849E+01
 40
1.79974
  1
General tolerances
 41
7.5E-01
100
AcDbText
  0
TEXT
  5
235
100
AcDbEntity
  8
199
100
AcDbText
  6
CONTINUOUS
 62
1
 10
-6.0120567E+01
 20
4.2797649E+01
 40
1.79974
  1
unless 
 41
7.5E-01
100
AcDbText
  0
TEXT
  5
236
100
AcDbEntity
  8
199
100
AcDbText
  6
CONTINUOUS
 62
1
 10
-6.686791E+01
 20
4.0087947E+01
 40
1.79974
  1
otherwise stated 
 41
7.5E-01
100
AcDbText
  0
TEXT
  5
237
100
AcDbEntity
  8
199
100
AcDbText
  6
CONTINUOUS
 62
1
 10
-6.3484567E+01
 20
3.7396747E+01
 40
1.79974
  1
according to
 41
7.5E-01
100
AcDbText
  0
TEXT
  5
238
100
AcDbEntity
  8
199
100
AcDbText
  6
CONTINUOUS
 62
1
 10
-6.4924359E+01
 20
1.3362649E+01
 40
1.79974
  1
 
100
AcDbText
  0
TEXT
  5
239
100
AcDbEntity
  8
199
100
AcDbText
  6
CONTINUOUS
 62
1
 10
-1.3263411E+02
 20
2.7659649E+01
 40
1.999898
  1
NATIONAL INSTITUTE FOR NUCLEAR PHYSICS,
 41
7.9983179E-01
100
AcDbText
  0
TEXT
  5
23a
100
AcDbEntity
  8
199
100
AcDbText
  6
CONTINUOUS
 62
1
 10
-1.1985091E+02
 20
2.4650551E+01
 40
1.999898
  1
AND HIGH ENERGY PHYSICS
 41
7.9983179E-01
100
AcDbText
  0
TEXT
  5
23b
100
AcDbEntity
  8
199
100
AcDbText
  6
CONTINUOUS
 62
1
 10
-1.3155006E+02
 20
2.1660796E+01
 40
1.999898
  1
P.O.41882,1009 DB Amsterdam,The Netherlands
 41
7.0016821E-01
100
AcDbText
  0
TEXT
  5
23c
100
AcDbEntity
  8
199
100
AcDbText
  6
CONTINUOUS
 62
1
 10
-1.3014811E+02
 20
1.8651698E+01
 40
1.999898
  1
Visitors: Kruislaan 409,1098 SJ,Amsterdam
 41
7.0016821E-01
100
AcDbText
  0
TEXT
  5
23d
100
AcDbEntity
  8
199
100
AcDbText
  6
CONTINUOUS
 62
1
 10
-1.2244876E+02
 20
1.5661943E+01
 40
1.999898
  1
tel:+31-(0)20-5922000
100
AcDbText
  0
TEXT
  5
23e
100
AcDbEntity
  8
199
100
AcDbText
  6
CONTINUOUS
 62
1
 10
-1.2244876E+02
 20
1.2652845E+01
 40
1.999898
  1
fax:+31-(0)20-5925155
100
AcDbText
  0
POLYLINE
  5
23f
100
AcDbEntity
  8
199
100
AcDb2dPolyline
  6
CONTINUOUS
 62
5
 66
1
 40
4.0E-01
 41
4.0E-01
 70
0
  0
VERTEX
  5
240
100
AcDbEntity
  8
199
100
AcDbVertex
100
AcDb2dVertex
 42
0.0
 10
-1.8000007E+02
 20
8.8000558E+01
 70
0
  0
VERTEX
  5
241
100
AcDbEntity
  8
199
100
AcDbVertex
100
AcDb2dVertex
 42
0.0
 10
-1.8000007E+02
 20
8.0000966E+01
 70
0
  0
SEQEND
  5
242
100
AcDbEntity
  0
POLYLINE
  5
243
100
AcDbEntity
  8
199
100
AcDb2dPolyline
  6
CONTINUOUS
 62
2
 66
1
 40
2.0E-01
 41
2.0E-01
 70
0
  0
VERTEX
  5
244
100
AcDbEntity
  8
199
100
AcDbVertex
100
AcDb2dVertex
 42
0.0
 10
-1.6527248E+02
 20
2.786233E+01
 70
0
  0
VERTEX
  5
245
100
AcDbEntity
  8
199
100
AcDbVertex
100
AcDb2dVertex
 42
0.0
 10
-1.5766816E+02
 20
2.5327556E+01
 70
0
  0
SEQEND
  5
246
100
AcDbEntity
  0
POLYLINE
  5
247
100
AcDbEntity
  8
199
100
AcDb2dPolyline
  6
CONTINUOUS
 62
2
 66
1
 40
2.0E-01
 41
2.0E-01
 70
0
  0
VERTEX
  5
248
100
AcDbEntity
  8
199
100
AcDbVertex
100
AcDb2dVertex
 42
0.0
 10
-1.6527248E+02
 20
1.4138892E+01
 70
0
  0
VERTEX
  5
249
100
AcDbEntity
  8
199
100
AcDbVertex
100
AcDb2dVertex
 42
0.0
 10
-1.5766816E+02
 20
1.6673666E+01
 70
0
  0
SEQEND
  5
24a
100
AcDbEntity
  0
POLYLINE
  5
24b
100
AcDbEntity
  8
199
100
AcDb2dPolyline
  6
CONTINUOUS
 62
2
 66
1
 40
2.0E-01
 41
2.0E-01
 70
0
  0
VERTEX
  5
24c
100
AcDbEntity
  8
199
100
AcDbVertex
100
AcDb2dVertex
 42
0.0
 10
-1.4666788E+02
 20
2.0501057E+01
 70
0
  0
VERTEX
  5
24d
100
AcDbEntity
  8
199
100
AcDbVertex
100
AcDb2dVertex
 42
0.0
 10
-1.4666788E+02
 20
2.1501006E+01
 70
0
  0
SEQEND
  5
24e
100
AcDbEntity
  0
POLYLINE
  5
24f
100
AcDbEntity
  8
199
100
AcDb2dPolyline
  6
CONTINUOUS
 62
2
 66
1
 40
2.0E-01
 41
2.0E-01
 70
0
  0
VERTEX
  5
250
100
AcDbEntity
  8
199
100
AcDbVertex
100
AcDb2dVertex
 42
0.0
 10
-1.4466798E+02
 20
2.3500904E+01
 70
0
  0
VERTEX
  5
251
100
AcDbEntity
  8
199
100
AcDbVertex
100
AcDb2dVertex
 42
0.0
 10
-1.4466798E+02
 20
2.4500853E+01
 70
0
  0
SEQEND
  5
252
100
AcDbEntity
  0
POLYLINE
  5
253
100
AcDbEntity
  8
199
100
AcDb2dPolyline
  6
CONTINUOUS
 62
2
 66
1
 40
2.0E-01
 41
2.0E-01
 70
0
  0
VERTEX
  5
254
100
AcDbEntity
  8
199
100
AcDbVertex
100
AcDb2dVertex
 42
0.0
 10
-1.3966823E+02
 20
2.0501057E+01
 70
0
  0
VERTEX
  5
255
100
AcDbEntity
  8
199
100
AcDbVertex
100
AcDb2dVertex
 42
0.0
 10
-1.3966823E+02
 20
2.1501006E+01
 70
0
  0
SEQEND
  5
256
100
AcDbEntity
  0
POLYLINE
  5
257
100
AcDbEntity
  8
199
100
AcDb2dPolyline
  6
CONTINUOUS
 62
2
 66
1
 40
2.0E-01
 41
2.0E-01
 70
0
  0
VERTEX
  5
258
100
AcDbEntity
  8
199
100
AcDbVertex
100
AcDb2dVertex
 42
0.0
 10
-1.4116774E+02
 20
2.1501006E+01
 70
0
  0
VERTEX
  5
259
100
AcDbEntity
  8
199
100
AcDbVertex
100
AcDb2dVertex
 42
0.0
 10
-1.4116774E+02
 20
2.3500904E+01
 70
0
  0
SEQEND
  5
25a
100
AcDbEntity
  0
POLYLINE
  5
25b
100
AcDbEntity
  8
199
100
AcDb2dPolyline
  6
CONTINUOUS
 62
2
 66
1
 40
2.0E-01
 41
2.0E-01
 70
0
  0
VERTEX
  5
25c
100
AcDbEntity
  8
199
100
AcDbVertex
100
AcDb2dVertex
 42
0.0
 10
-1.3766834E+02
 20
2.3500904E+01
 70
0
  0
VERTEX
  5
25d
100
AcDbEntity
  8
199
100
AcDbVertex
100
AcDb2dVertex
 42
0.0
 10
-1.3766834E+02
 20
2.4500853E+01
 70
0
  0
SEQEND
  5
25e
100
AcDbEntity
  0
POLYLINE
  5
25f
100
AcDbEntity
  8
199
100
AcDb2dPolyline
  6
CONTINUOUS
 62
3
 66
1
 40
3.0E-01
 41
3.0E-01
 70
0
  0
VERTEX
  5
260
100
AcDbEntity
  8
199
100
AcDbVertex
100
AcDb2dVertex
 42
0.0
 10
-1.8000007E+02
 20
1.0000331E+01
 70
0
  0
VERTEX
  5
261
100
AcDbEntity
  8
199
100
AcDbVertex
100
AcDb2dVertex
 42
0.0
 10
0.0
 20
1.0000331E+01
 70
0
  0
SEQEND
  5
262
100
AcDbEntity
  0
POLYLINE
  5
263
100
AcDbEntity
  8
199
100
AcDb2dPolyline
  6
CONTINUOUS
 62
3
 66
1
 40
2.0E-01
 41
2.0E-01
 70
0
  0
VERTEX
  5
264
100
AcDbEntity
  8
199
100
AcDbVertex
100
AcDb2dVertex
 42
0.0
 10
-1.7793373E+02
 20
1.0000331E+01
 70
0
  0
VERTEX
  5
265
100
AcDbEntity
  8
199
100
AcDbVertex
100
AcDb2dVertex
 42
0.0
 10
-1.7793373E+02
 20
0.0
 70
0
  0
SEQEND
  5
266
100
AcDbEntity
  0
POLYLINE
  5
267
100
AcDbEntity
  8
199
100
AcDb2dPolyline
  6
CONTINUOUS
 62
5
 66
1
 40
3.0E-01
 41
3.0E-01
 70
0
  0
VERTEX
  5
268
100
AcDbEntity
  8
199
100
AcDbVertex
100
AcDb2dVertex
 42
0.0
 10
-1.7693379E+02
 20
1.0000331E+01
 70
0
  0
VERTEX
  5
269
100
AcDbEntity
  8
199
100
AcDbVertex
100
AcDb2dVertex
 42
0.0
 10
-1.7693379E+02
 20
0.0
 70
0
  0
SEQEND
  5
26a
100
AcDbEntity
  0
POLYLINE
  5
26b
100
AcDbEntity
  8
199
100
AcDb2dPolyline
  6
CONTINUOUS
 62
2
 66
1
 40
4.0E-01
 41
4.0E-01
 70
0
  0
VERTEX
  5
26c
100
AcDbEntity
  8
199
100
AcDbVertex
100
AcDb2dVertex
 42
0.0
 10
-1.7593384E+02
 20
0.0
 70
0
  0
VERTEX
  5
26d
100
AcDbEntity
  8
199
100
AcDbVertex
100
AcDb2dVertex
 42
0.0
 10
-1.7593384E+02
 20
1.0000331E+01
 70
0
  0
SEQEND
  5
26e
100
AcDbEntity
  0
POLYLINE
  5
26f
100
AcDbEntity
  8
199
100
AcDb2dPolyline
  6
CONTINUOUS
 62
4
 66
1
 40
5.0E-01
 41
5.0E-01
 70
0
  0
VERTEX
  5
270
100
AcDbEntity
  8
199
100
AcDbVertex
100
AcDb2dVertex
 42
0.0
 10
-1.7493389E+02
 20
1.0000331E+01
 70
0
  0
VERTEX
  5
271
100
AcDbEntity
  8
199
100
AcDbVertex
100
AcDb2dVertex
 42
0.0
 10
-1.7493389E+02
 20
0.0
 70
0
  0
SEQEND
  5
272
100
AcDbEntity
  0
POLYLINE
  5
273
100
AcDbEntity
  8
199
100
AcDb2dPolyline
  6
CONTINUOUS
 62
6
 66
1
 40
6.0E-01
 41
6.0E-01
 70
0
  0
VERTEX
  5
274
100
AcDbEntity
  8
199
100
AcDbVertex
100
AcDb2dVertex
 42
0.0
 10
-1.7343354E+02
 20
1.0000331E+01
 70
0
  0
VERTEX
  5
275
100
AcDbEntity
  8
199
100
AcDbVertex
100
AcDb2dVertex
 42
0.0
 10
-1.7343354E+02
 20
0.0
 70
0
  0
SEQEND
  5
276
100
AcDbEntity
  0
POLYLINE
  5
277
100
AcDbEntity
  8
199
100
AcDb2dPolyline
  6
CONTINUOUS
 62
230
 66
1
 40
7.0E-01
 41
7.0E-01
 70
0
  0
VERTEX
  5
278
100
AcDbEntity
  8
199
100
AcDbVertex
100
AcDb2dVertex
 42
0.0
 10
-1.7193404E+02
 20
1.0000331E+01
 70
0
  0
VERTEX
  5
279
100
AcDbEntity
  8
199
100
AcDbVertex
100
AcDb2dVertex
 42
0.0
 10
-1.7193404E+02
 20
0.0
 70
0
  0
SEQEND
  5
27a
100
AcDbEntity
  0
POLYLINE
  5
27b
100
AcDbEntity
  8
199
100
AcDb2dPolyline
  6
CONTINUOUS
 62
30
 66
1
 40
8.0E-01
 41
8.0E-01
 70
0
  0
VERTEX
  5
27c
100
AcDbEntity
  8
199
100
AcDbVertex
100
AcDb2dVertex
 42
0.0
 10
-1.6993414E+02
 20
1.0000331E+01
 70
0
  0
VERTEX
  5
27d
100
AcDbEntity
  8
199
100
AcDbVertex
100
AcDb2dVertex
 42
0.0
 10
-1.6993414E+02
 20
0.0
 70
0
  0
SEQEND
  5
27e
100
AcDbEntity
  0
POLYLINE
  5
27f
100
AcDbEntity
  8
199
100
AcDb2dPolyline
  6
CONTINUOUS
 62
150
 66
1
 40
9.0E-01
 41
9.0E-01
 70
0
  0
VERTEX
  5
280
100
AcDbEntity
  8
199
100
AcDbVertex
100
AcDb2dVertex
 42
0.0
 10
-1.6743385E+02
 20
1.0000331E+01
 70
0
  0
VERTEX
  5
281
100
AcDbEntity
  8
199
100
AcDbVertex
100
AcDb2dVertex
 42
0.0
 10
-1.6743385E+02
 20
0.0
 70
0
  0
SEQEND
  5
282
100
AcDbEntity
  0
POLYLINE
  5
283
100
AcDbEntity
  8
199
100
AcDb2dPolyline
  6
CONTINUOUS
 62
70
 66
1
 40
1.0
 41
1.0
 70
0
  0
VERTEX
  5
284
100
AcDbEntity
  8
199
100
AcDbVertex
100
AcDb2dVertex
 42
0.0
 10
-1.64434E+02
 20
1.0000331E+01
 70
0
  0
VERTEX
  5
285
100
AcDbEntity
  8
199
100
AcDbVertex
100
AcDb2dVertex
 42
0.0
 10
-1.64434E+02
 20
0.0
 70
0
  0
SEQEND
  5
286
100
AcDbEntity
  0
POLYLINE
  5
287
100
AcDbEntity
  8
199
100
AcDb2dPolyline
  6
CONTINUOUS
 62
5
 66
1
 40
4.0E-01
 41
4.0E-01
 70
0
  0
VERTEX
  5
288
100
AcDbEntity
  8
199
100
AcDbVertex
100
AcDb2dVertex
 42
0.0
 10
-1.8000007E+02
 20
8.0000966E+01
 70
0
  0
VERTEX
  5
289
100
AcDbEntity
  8
199
100
AcDbVertex
100
AcDb2dVertex
 42
0.0
 10
-1.8000007E+02
 20
0.0
 70
0
  0
SEQEND
  5
28a
100
AcDbEntity
  0
POLYLINE
  5
28b
100
AcDbEntity
  8
199
100
AcDb2dPolyline
  6
CONTINUOUS
 62
3
 66
1
 40
2.0E-01
 41
2.0E-01
 70
0
  0
VERTEX
  5
28c
100
AcDbEntity
  8
199
100
AcDbVertex
100
AcDb2dVertex
 42
0.0
 10
-1.6799984E+02
 20
8.0000966E+01
 70
0
  0
VERTEX
  5
28d
100
AcDbEntity
  8
199
100
AcDbVertex
100
AcDb2dVertex
 42
0.0
 10
-1.6799984E+02
 20
8.8000558E+01
 70
0
  0
SEQEND
  5
28e
100
AcDbEntity
  0
POLYLINE
  5
28f
100
AcDbEntity
  8
199
100
AcDb2dPolyline
  6
CONTINUOUS
 62
3
 66
1
 40
2.0E-01
 41
2.0E-01
 70
0
  0
VERTEX
  5
290
100
AcDbEntity
  8
199
100
AcDbVertex
100
AcDb2dVertex
 42
0.0
 10
-1.5600045E+02
 20
8.0000966E+01
 70
0
  0
VERTEX
  5
291
100
AcDbEntity
  8
199
100
AcDbVertex
100
AcDb2dVertex
 42
0.0
 10
-1.5600045E+02
 20
8.8000558E+01
 70
0
  0
SEQEND
  5
292
100
AcDbEntity
  0
POLYLINE
  5
293
100
AcDbEntity
  8
199
100
AcDb2dPolyline
  6
CONTINUOUS
 62
3
 66
1
 40
2.0E-01
 41
2.0E-01
 70
0
  0
VERTEX
  5
294
100
AcDbEntity
  8
199
100
AcDbVertex
100
AcDb2dVertex
 42
0.0
 10
-1.0099989E+02
 20
8.0000966E+01
 70
0
  0
VERTEX
  5
295
100
AcDbEntity
  8
199
100
AcDbVertex
100
AcDb2dVertex
 42
0.0
 10
-1.0099989E+02
 20
8.8000558E+01
 70
0
  0
SEQEND
  5
296
100
AcDbEntity
  0
POLYLINE
  5
297
100
AcDbEntity
  8
199
100
AcDb2dPolyline
  6
CONTINUOUS
 62
3
 66
1
 40
2.0E-01
 41
2.0E-01
 70
0
  0
VERTEX
  5
298
100
AcDbEntity
  8
199
100
AcDbVertex
100
AcDb2dVertex
 42
0.0
 10
-6.7999896E+01
 20
8.0000966E+01
 70
0
  0
VERTEX
  5
299
100
AcDbEntity
  8
199
100
AcDbVertex
100
AcDb2dVertex
 42
0.0
 10
-6.7999896E+01
 20
8.8000558E+01
 70
0
  0
SEQEND
  5
29a
100
AcDbEntity
  0
POLYLINE
  5
29b
100
AcDbEntity
  8
199
100
AcDb2dPolyline
  6
CONTINUOUS
 62
3
 66
1
 40
2.0E-01
 41
2.0E-01
 70
0
  0
VERTEX
  5
29c
100
AcDbEntity
  8
199
100
AcDbVertex
100
AcDb2dVertex
 42
0.0
 10
-3.4999897E+01
 20
8.0000966E+01
 70
0
  0
VERTEX
  5
29d
100
AcDbEntity
  8
199
100
AcDbVertex
100
AcDb2dVertex
 42
0.0
 10
-3.4999897E+01
 20
8.4000762E+01
 70
0
  0
SEQEND
  5
29e
100
AcDbEntity
  0
POLYLINE
  5
29f
100
AcDbEntity
  8
199
100
AcDb2dPolyline
  6
CONTINUOUS
 62
3
 66
1
 40
2.0E-01
 41
2.0E-01
 70
0
  0
VERTEX
  5
2a0
100
AcDbEntity
  8
199
100
AcDbVertex
100
AcDb2dVertex
 42
0.0
 10
-3.4999897E+01
 20
8.4000762E+01
 70
0
  0
VERTEX
  5
2a1
100
AcDbEntity
  8
199
100
AcDbVertex
100
AcDb2dVertex
 42
0.0
 10
-3.4999897E+01
 20
8.8000558E+01
 70
0
  0
SEQEND
  5
2a2
100
AcDbEntity
  0
POLYLINE
  5
2a3
100
AcDbEntity
  8
199
100
AcDb2dPolyline
  6
CONTINUOUS
 62
2
 66
1
 40
2.0E-01
 41
2.0E-01
 70
0
  0
VERTEX
  5
2a4
100
AcDbEntity
  8
199
100
AcDbVertex
100
AcDb2dVertex
 42
0.0
 10
-1.7716842E+02
 20
2.4500853E+01
 70
0
  0
VERTEX
  5
2a5
100
AcDbEntity
  8
199
100
AcDbVertex
100
AcDb2dVertex
 42
0.0
 10
-1.7597925E+02
 20
2.4500853E+01
 70
0
  0
SEQEND
  5
2a6
100
AcDbEntity
  0
POLYLINE
  5
2a7
100
AcDbEntity
  8
199
100
AcDb2dPolyline
  6
CONTINUOUS
 62
2
 66
1
 40
2.0E-01
 41
2.0E-01
 70
0
  0
VERTEX
  5
2a8
100
AcDbEntity
  8
199
100
AcDbVertex
100
AcDb2dVertex
 42
0.0
 10
-1.7266823E+02
 20
2.4500853E+01
 70
0
  0
VERTEX
  5
2a9
100
AcDbEntity
  8
199
100
AcDbVertex
100
AcDb2dVertex
 42
0.0
 10
-1.7166828E+02
 20
2.4500853E+01
 70
0
  0
SEQEND
  5
2aa
100
AcDbEntity
  0
POLYLINE
  5
2ab
100
AcDbEntity
  8
199
100
AcDb2dPolyline
  6
CONTINUOUS
 62
2
 66
1
 40
2.0E-01
 41
2.0E-01
 70
0
  0
VERTEX
  5
2ac
100
AcDbEntity
  8
199
100
AcDbVertex
100
AcDb2dVertex
 42
0.0
 10
-1.6816804E+02
 20
2.4500853E+01
 70
0
  0
VERTEX
  5
2ad
100
AcDbEntity
  8
199
100
AcDbVertex
100
AcDb2dVertex
 42
0.0
 10
-1.6716809E+02
 20
2.4500853E+01
 70
0
  0
SEQEND
  5
2ae
100
AcDbEntity
  0
POLYLINE
  5
2af
100
AcDbEntity
  8
199
100
AcDb2dPolyline
  6
CONTINUOUS
 62
2
 66
1
 40
2.0E-01
 41
2.0E-01
 70
0
  0
VERTEX
  5
2b0
100
AcDbEntity
  8
199
100
AcDbVertex
100
AcDb2dVertex
 42
0.0
 10
-1.5699956E+02
 20
2.493565E+01
 70
0
  0
VERTEX
  5
2b1
100
AcDbEntity
  8
199
100
AcDbVertex
100
AcDb2dVertex
 42
0.0
 10
-1.553184E+02
 20
2.493565E+01
 70
0
  0
SEQEND
  5
2b2
100
AcDbEntity
  0
POLYLINE
  5
2b3
100
AcDbEntity
  8
199
100
AcDb2dPolyline
  6
CONTINUOUS
 62
2
 66
1
 40
2.0E-01
 41
2.0E-01
 70
0
  0
VERTEX
  5
2b4
100
AcDbEntity
  8
199
100
AcDbVertex
100
AcDb2dVertex
 42
0.0
 10
-1.5251703E+02
 20
2.493565E+01
 70
0
  0
VERTEX
  5
2b5
100
AcDbEntity
  8
199
100
AcDbVertex
100
AcDb2dVertex
 42
0.0
 10
-1.5083671E+02
 20
2.493565E+01
 70
0
  0
SEQEND
  5
2b6
100
AcDbEntity
  0
POLYLINE
  5
2b7
100
AcDbEntity
  8
199
100
AcDb2dPolyline
  6
CONTINUOUS
 62
2
 66
1
 40
2.0E-01
 41
2.0E-01
 70
0
  0
VERTEX
  5
2b8
100
AcDbEntity
  8
199
100
AcDbVertex
100
AcDb2dVertex
 42
0.0
 10
-1.4916817E+02
 20
2.4500853E+01
 70
0
  0
VERTEX
  5
2b9
100
AcDbEntity
  8
199
100
AcDbVertex
100
AcDb2dVertex
 42
0.0
 10
-1.4466798E+02
 20
2.4500853E+01
 70
0
  0
SEQEND
  5
2ba
100
AcDbEntity
  0
POLYLINE
  5
2bb
100
AcDbEntity
  8
199
100
AcDb2dPolyline
  6
CONTINUOUS
 62
2
 66
1
 40
2.0E-01
 41
2.0E-01
 70
0
  0
VERTEX
  5
2bc
100
AcDbEntity
  8
199
100
AcDbVertex
100
AcDb2dVertex
 42
0.0
 10
-1.4216769E+02
 20
2.4500853E+01
 70
0
  0
VERTEX
  5
2bd
100
AcDbEntity
  8
199
100
AcDbVertex
100
AcDb2dVertex
 42
0.0
 10
-1.3766834E+02
 20
2.4500853E+01
 70
0
  0
SEQEND
  5
2be
100
AcDbEntity
  0
POLYLINE
  5
2bf
100
AcDbEntity
  8
199
100
AcDb2dPolyline
  6
CONTINUOUS
 62
2
 66
1
 40
2.0E-01
 41
2.0E-01
 70
0
  0
VERTEX
  5
2c0
100
AcDbEntity
  8
199
100
AcDbVertex
100
AcDb2dVertex
 42
0.0
 10
-1.3766834E+02
 20
2.3500904E+01
 70
0
  0
VERTEX
  5
2c1
100
AcDbEntity
  8
199
100
AcDbVertex
100
AcDb2dVertex
 42
0.0
 10
-1.4116774E+02
 20
2.3500904E+01
 70
0
  0
SEQEND
  5
2c2
100
AcDbEntity
  0
POLYLINE
  5
2c3
100
AcDbEntity
  8
199
100
AcDb2dPolyline
  6
CONTINUOUS
 62
2
 66
1
 40
2.0E-01
 41
2.0E-01
 70
0
  0
VERTEX
  5
2c4
100
AcDbEntity
  8
199
100
AcDbVertex
100
AcDb2dVertex
 42
0.0
 10
-1.4116774E+02
 20
2.1501006E+01
 70
0
  0
VERTEX
  5
2c5
100
AcDbEntity
  8
199
100
AcDbVertex
100
AcDb2dVertex
 42
0.0
 10
-1.3966823E+02
 20
2.1501006E+01
 70
0
  0
SEQEND
  5
2c6
100
AcDbEntity
  0
POLYLINE
  5
2c7
100
AcDbEntity
  8
199
100
AcDb2dPolyline
  6
CONTINUOUS
 62
2
 66
1
 40
2.0E-01
 41
2.0E-01
 70
0
  0
VERTEX
  5
2c8
100
AcDbEntity
  8
199
100
AcDbVertex
100
AcDb2dVertex
 42
0.0
 10
-1.3966823E+02
 20
2.0501057E+01
 70
0
  0
VERTEX
  5
2c9
100
AcDbEntity
  8
199
100
AcDbVertex
100
AcDb2dVertex
 42
0.0
 10
-1.4116774E+02
 20
2.0501057E+01
 70
0
  0
SEQEND
  5
2ca
100
AcDbEntity
  0
POLYLINE
  5
2cb
100
AcDbEntity
  8
199
100
AcDb2dPolyline
  6
CONTINUOUS
 62
2
 66
1
 40
2.0E-01
 41
2.0E-01
 70
0
  0
VERTEX
  5
2cc
100
AcDbEntity
  8
199
100
AcDbVertex
100
AcDb2dVertex
 42
0.0
 10
-1.4116774E+02
 20
1.7500369E+01
 70
0
  0
VERTEX
  5
2cd
100
AcDbEntity
  8
199
100
AcDbVertex
100
AcDb2dVertex
 42
0.0
 10
-1.4216769E+02
 20
1.7500369E+01
 70
0
  0
SEQEND
  5
2ce
100
AcDbEntity
  0
POLYLINE
  5
2cf
100
AcDbEntity
  8
199
100
AcDb2dPolyline
  6
CONTINUOUS
 62
2
 66
1
 40
2.0E-01
 41
2.0E-01
 70
0
  0
VERTEX
  5
2d0
100
AcDbEntity
  8
199
100
AcDbVertex
100
AcDb2dVertex
 42
0.0
 10
-1.4816822E+02
 20
2.1501006E+01
 70
0
  0
VERTEX
  5
2d1
100
AcDbEntity
  8
199
100
AcDbVertex
100
AcDb2dVertex
 42
0.0
 10
-1.4816822E+02
 20
2.3500904E+01
 70
0
  0
SEQEND
  5
2d2
100
AcDbEntity
  0
POLYLINE
  5
2d3
100
AcDbEntity
  8
199
100
AcDb2dPolyline
  6
CONTINUOUS
 62
2
 66
1
 40
2.0E-01
 41
2.0E-01
 70
0
  0
VERTEX
  5
2d4
100
AcDbEntity
  8
199
100
AcDbVertex
100
AcDb2dVertex
 42
0.0
 10
-1.4466798E+02
 20
2.3500904E+01
 70
0
  0
VERTEX
  5
2d5
100
AcDbEntity
  8
199
100
AcDbVertex
100
AcDb2dVertex
 42
0.0
 10
-1.4816822E+02
 20
2.3500904E+01
 70
0
  0
SEQEND
  5
2d6
100
AcDbEntity
  0
POLYLINE
  5
2d7
100
AcDbEntity
  8
199
100
AcDb2dPolyline
  6
CONTINUOUS
 62
2
 66
1
 40
2.0E-01
 41
2.0E-01
 70
0
  0
VERTEX
  5
2d8
100
AcDbEntity
  8
199
100
AcDbVertex
100
AcDb2dVertex
 42
0.0
 10
-1.4816822E+02
 20
2.1501006E+01
 70
0
  0
VERTEX
  5
2d9
100
AcDbEntity
  8
199
100
AcDbVertex
100
AcDb2dVertex
 42
0.0
 10
-1.4666788E+02
 20
2.1501006E+01
 70
0
  0
SEQEND
  5
2da
100
AcDbEntity
  0
POLYLINE
  5
2db
100
AcDbEntity
  8
199
100
AcDb2dPolyline
  6
CONTINUOUS
 62
2
 66
1
 40
2.0E-01
 41
2.0E-01
 70
0
  0
VERTEX
  5
2dc
100
AcDbEntity
  8
199
100
AcDbVertex
100
AcDb2dVertex
 42
0.0
 10
-1.4466798E+02
 20
1.8500318E+01
 70
0
  0
VERTEX
  5
2dd
100
AcDbEntity
  8
199
100
AcDbVertex
100
AcDb2dVertex
 42
0.0
 10
-1.4816822E+02
 20
1.8500318E+01
 70
0
  0
SEQEND
  5
2de
100
AcDbEntity
  0
POLYLINE
  5
2df
100
AcDbEntity
  8
199
100
AcDb2dPolyline
  6
CONTINUOUS
 62
2
 66
1
 40
2.0E-01
 41
2.0E-01
 70
0
  0
VERTEX
  5
2e0
100
AcDbEntity
  8
199
100
AcDbVertex
100
AcDb2dVertex
 42
0.0
 10
-1.4816822E+02
 20
2.0500216E+01
 70
0
  0
VERTEX
  5
2e1
100
AcDbEntity
  8
199
100
AcDbVertex
100
AcDb2dVertex
 42
0.0
 10
-1.4816822E+02
 20
1.8500318E+01
 70
0
  0
SEQEND
  5
2e2
100
AcDbEntity
  0
POLYLINE
  5
2e3
100
AcDbEntity
  8
199
100
AcDb2dPolyline
  6
CONTINUOUS
 62
2
 66
1
 40
2.0E-01
 41
2.0E-01
 70
0
  0
VERTEX
  5
2e4
100
AcDbEntity
  8
199
100
AcDbVertex
100
AcDb2dVertex
 42
0.0
 10
-1.4816822E+02
 20
2.0500216E+01
 70
0
  0
VERTEX
  5
2e5
100
AcDbEntity
  8
199
100
AcDbVertex
100
AcDb2dVertex
 42
0.0
 10
-1.4666788E+02
 20
2.0500216E+01
 70
0
  0
SEQEND
  5
2e6
100
AcDbEntity
  0
POLYLINE
  5
2e7
100
AcDbEntity
  8
199
100
AcDb2dPolyline
  6
CONTINUOUS
 62
2
 66
1
 40
2.0E-01
 41
2.0E-01
 70
0
  0
VERTEX
  5
2e8
100
AcDbEntity
  8
199
100
AcDbVertex
100
AcDb2dVertex
 42
0.0
 10
-1.4916817E+02
 20
1.7500369E+01
 70
0
  0
VERTEX
  5
2e9
100
AcDbEntity
  8
199
100
AcDbVertex
100
AcDb2dVertex
 42
0.0
 10
-1.4466798E+02
 20
1.7500369E+01
 70
0
  0
SEQEND
  5
2ea
100
AcDbEntity
  0
POLYLINE
  5
2eb
100
AcDbEntity
  8
199
100
AcDb2dPolyline
  6
CONTINUOUS
 62
2
 66
1
 40
2.0E-01
 41
2.0E-01
 70
0
  0
VERTEX
  5
2ec
100
AcDbEntity
  8
199
100
AcDbVertex
100
AcDb2dVertex
 42
0.0
 10
-1.4466798E+02
 20
1.7500369E+01
 70
0
  0
VERTEX
  5
2ed
100
AcDbEntity
  8
199
100
AcDbVertex
100
AcDb2dVertex
 42
0.0
 10
-1.4466798E+02
 20
1.8500318E+01
 70
0
  0
SEQEND
  5
2ee
100
AcDbEntity
  0
POLYLINE
  5
2ef
100
AcDbEntity
  8
199
100
AcDb2dPolyline
  6
CONTINUOUS
 62
2
 66
1
 40
2.0E-01
 41
2.0E-01
 70
0
  0
VERTEX
  5
2f0
100
AcDbEntity
  8
199
100
AcDbVertex
100
AcDb2dVertex
 42
0.0
 10
-1.5251703E+02
 20
2.1839929E+01
 70
0
  0
VERTEX
  5
2f1
100
AcDbEntity
  8
199
100
AcDbVertex
100
AcDb2dVertex
 42
0.0
 10
-1.553184E+02
 20
2.1839929E+01
 70
0
  0
SEQEND
  5
2f2
100
AcDbEntity
  0
POLYLINE
  5
2f3
100
AcDbEntity
  8
199
100
AcDb2dPolyline
  6
CONTINUOUS
 62
2
 66
1
 40
2.0E-01
 41
2.0E-01
 70
0
  0
VERTEX
  5
2f4
100
AcDbEntity
  8
199
100
AcDbVertex
100
AcDb2dVertex
 42
0.0
 10
-1.553184E+02
 20
2.0160452E+01
 70
0
  0
VERTEX
  5
2f5
100
AcDbEntity
  8
199
100
AcDbVertex
100
AcDb2dVertex
 42
0.0
 10
-1.5251703E+02
 20
2.0160452E+01
 70
0
  0
SEQEND
  5
2f6
100
AcDbEntity
  0
POLYLINE
  5
2f7
100
AcDbEntity
  8
199
100
AcDb2dPolyline
  6
CONTINUOUS
 62
2
 66
1
 40
2.0E-01
 41
2.0E-01
 70
0
  0
VERTEX
  5
2f8
100
AcDbEntity
  8
199
100
AcDbVertex
100
AcDb2dVertex
 42
0.0
 10
-1.5251703E+02
 20
1.7065572E+01
 70
0
  0
VERTEX
  5
2f9
100
AcDbEntity
  8
199
100
AcDbVertex
100
AcDb2dVertex
 42
0.0
 10
-1.5083671E+02
 20
1.7065572E+01
 70
0
  0
SEQEND
  5
2fa
100
AcDbEntity
  0
POLYLINE
  5
2fb
100
AcDbEntity
  8
199
100
AcDb2dPolyline
  6
CONTINUOUS
 62
2
 66
1
 40
2.0E-01
 41
2.0E-01
 70
0
  0
VERTEX
  5
2fc
100
AcDbEntity
  8
199
100
AcDbVertex
100
AcDb2dVertex
 42
0.0
 10
-1.553184E+02
 20
1.7065572E+01
 70
0
  0
VERTEX
  5
2fd
100
AcDbEntity
  8
199
100
AcDbVertex
100
AcDb2dVertex
 42
0.0
 10
-1.5699956E+02
 20
1.7065572E+01
 70
0
  0
SEQEND
  5
2fe
100
AcDbEntity
  0
POLYLINE
  5
2ff
100
AcDbEntity
  8
199
100
AcDb2dPolyline
  6
CONTINUOUS
 62
2
 66
1
 40
2.0E-01
 41
2.0E-01
 70
0
  0
VERTEX
  5
300
100
AcDbEntity
  8
199
100
AcDbVertex
100
AcDb2dVertex
 42
0.0
 10
-1.6716809E+02
 20
1.7500369E+01
 70
0
  0
VERTEX
  5
301
100
AcDbEntity
  8
199
100
AcDbVertex
100
AcDb2dVertex
 42
0.0
 10
-1.6816804E+02
 20
1.7500369E+01
 70
0
  0
SEQEND
  5
302
100
AcDbEntity
  0
POLYLINE
  5
303
100
AcDbEntity
  8
199
100
AcDb2dPolyline
  6
CONTINUOUS
 62
2
 66
1
 40
2.0E-01
 41
2.0E-01
 70
0
  0
VERTEX
  5
304
100
AcDbEntity
  8
199
100
AcDbVertex
100
AcDb2dVertex
 42
0.0
 10
-1.7166828E+02
 20
1.7500369E+01
 70
0
  0
VERTEX
  5
305
100
AcDbEntity
  8
199
100
AcDbVertex
100
AcDb2dVertex
 42
0.0
 10
-1.7266823E+02
 20
1.7500369E+01
 70
0
  0
SEQEND
  5
306
100
AcDbEntity
  0
POLYLINE
  5
307
100
AcDbEntity
  8
199
100
AcDb2dPolyline
  6
CONTINUOUS
 62
2
 66
1
 40
2.0E-01
 41
2.0E-01
 70
0
  0
VERTEX
  5
308
100
AcDbEntity
  8
199
100
AcDbVertex
100
AcDb2dVertex
 42
0.0
 10
-1.7616848E+02
 20
1.7500369E+01
 70
0
  0
VERTEX
  5
309
100
AcDbEntity
  8
199
100
AcDbVertex
100
AcDb2dVertex
 42
0.0
 10
-1.7716842E+02
 20
1.7500369E+01
 70
0
  0
SEQEND
  5
30a
100
AcDbEntity
  0
POLYLINE
  5
30b
100
AcDbEntity
  8
199
100
AcDb2dPolyline
  6
CONTINUOUS
 62
2
 66
1
 40
2.0E-01
 41
2.0E-01
 70
0
  0
VERTEX
  5
30c
100
AcDbEntity
  8
199
100
AcDbVertex
100
AcDb2dVertex
 42
0.0
 10
-1.6275764E+02
 20
2.493565E+01
 70
0
  0
VERTEX
  5
30d
100
AcDbEntity
  8
199
100
AcDbVertex
100
AcDb2dVertex
 42
0.0
 10
-1.6275764E+02
 20
2.1851196E+01
 70
0
  0
SEQEND
  5
30e
100
AcDbEntity
  0
POLYLINE
  5
30f
100
AcDbEntity
  8
199
100
AcDb2dPolyline
  6
CONTINUOUS
 62
2
 66
1
 40
2.0E-01
 41
2.0E-01
 70
0
  0
VERTEX
  5
310
100
AcDbEntity
  8
199
100
AcDbVertex
100
AcDb2dVertex
 42
0.0
 10
-1.6275764E+02
 20
1.9587215E+01
 70
0
  0
VERTEX
  5
311
100
AcDbEntity
  8
199
100
AcDbVertex
100
AcDb2dVertex
 42
0.0
 10
-1.6275764E+02
 20
1.7065572E+01
 70
0
  0
SEQEND
  5
312
100
AcDbEntity
  0
POLYLINE
  5
313
100
AcDbEntity
  8
199
100
AcDb2dPolyline
  6
CONTINUOUS
 62
2
 66
1
 40
2.0E-01
 41
2.0E-01
 70
0
  0
VERTEX
  5
314
100
AcDbEntity
  8
199
100
AcDbVertex
100
AcDb2dVertex
 42
0.0
 10
-1.644388E+02
 20
1.7065572E+01
 70
0
  0
VERTEX
  5
315
100
AcDbEntity
  8
199
100
AcDbVertex
100
AcDb2dVertex
 42
0.0
 10
-1.644388E+02
 20
2.493565E+01
 70
0
  0
SEQEND
  5
316
100
AcDbEntity
  0
POLYLINE
  5
317
100
AcDbEntity
  8
199
100
AcDb2dPolyline
  6
CONTINUOUS
 62
2
 66
1
 40
2.0E-01
 41
2.0E-01
 70
0
  0
VERTEX
  5
318
100
AcDbEntity
  8
199
100
AcDbVertex
100
AcDb2dVertex
 42
0.0
 10
-1.644388E+02
 20
2.493565E+01
 70
0
  0
VERTEX
  5
319
100
AcDbEntity
  8
199
100
AcDbVertex
100
AcDb2dVertex
 42
0.0
 10
-1.6275764E+02
 20
2.493565E+01
 70
0
  0
SEQEND
  5
31a
100
AcDbEntity
  0
POLYLINE
  5
31b
100
AcDbEntity
  8
199
100
AcDb2dPolyline
  6
CONTINUOUS
 62
2
 66
1
 40
2.0E-01
 41
2.0E-01
 70
0
  0
VERTEX
  5
31c
100
AcDbEntity
  8
199
100
AcDbVertex
100
AcDb2dVertex
 42
0.0
 10
-1.6275764E+02
 20
1.7065572E+01
 70
0
  0
VERTEX
  5
31d
100
AcDbEntity
  8
199
100
AcDbVertex
100
AcDb2dVertex
 42
0.0
 10
-1.644388E+02
 20
1.7065572E+01
 70
0
  0
SEQEND
  5
31e
100
AcDbEntity
  0
POLYLINE
  5
31f
100
AcDbEntity
  8
199
100
AcDb2dPolyline
  6
CONTINUOUS
 62
2
 66
1
 40
2.0E-01
 41
2.0E-01
 70
0
  0
VERTEX
  5
320
100
AcDbEntity
  8
199
100
AcDbVertex
100
AcDb2dVertex
 42
0.0
 10
-1.6002926E+02
 20
2.493565E+01
 70
0
  0
VERTEX
  5
321
100
AcDbEntity
  8
199
100
AcDbVertex
100
AcDb2dVertex
 42
0.0
 10
-1.5802664E+02
 20
2.493565E+01
 70
0
  0
SEQEND
  5
322
100
AcDbEntity
  0
POLYLINE
  5
323
100
AcDbEntity
  8
199
100
AcDb2dPolyline
  6
CONTINUOUS
 62
2
 66
1
 40
2.0E-01
 41
2.0E-01
 70
0
  0
VERTEX
  5
324
100
AcDbEntity
  8
199
100
AcDbVertex
100
AcDb2dVertex
 42
0.0
 10
-1.6002926E+02
 20
2.493565E+01
 70
0
  0
VERTEX
  5
325
100
AcDbEntity
  8
199
100
AcDbVertex
100
AcDb2dVertex
 42
0.0
 10
-1.6275764E+02
 20
2.1851196E+01
 70
0
  0
SEQEND
  5
326
100
AcDbEntity
  0
POLYLINE
  5
327
100
AcDbEntity
  8
199
100
AcDb2dPolyline
  6
CONTINUOUS
 62
2
 66
1
 40
2.0E-01
 41
2.0E-01
 70
0
  0
VERTEX
  5
328
100
AcDbEntity
  8
199
100
AcDbVertex
100
AcDb2dVertex
 42
0.0
 10
-1.5802664E+02
 20
2.493565E+01
 70
0
  0
VERTEX
  5
329
100
AcDbEntity
  8
199
100
AcDbVertex
100
AcDb2dVertex
 42
0.0
 10
-1.611879E+02
 20
2.1361819E+01
 70
0
  0
SEQEND
  5
32a
100
AcDbEntity
  0
POLYLINE
  5
32b
100
AcDbEntity
  8
199
100
AcDb2dPolyline
  6
CONTINUOUS
 62
2
 66
1
 40
2.0E-01
 41
2.0E-01
 70
0
  0
VERTEX
  5
32c
100
AcDbEntity
  8
199
100
AcDbVertex
100
AcDb2dVertex
 42
0.0
 10
-1.6220453E+02
 20
2.0212509E+01
 70
0
  0
VERTEX
  5
32d
100
AcDbEntity
  8
199
100
AcDbVertex
100
AcDb2dVertex
 42
0.0
 10
-1.6275764E+02
 20
1.9587215E+01
 70
0
  0
SEQEND
  5
32e
100
AcDbEntity
  0
POLYLINE
  5
32f
100
AcDbEntity
  8
199
100
AcDb2dPolyline
  6
CONTINUOUS
 62
2
 66
1
 40
2.0E-01
 41
2.0E-01
 70
0
  0
VERTEX
  5
330
100
AcDbEntity
  8
199
100
AcDbVertex
100
AcDb2dVertex
 42
0.0
 10
-1.5988895E+02
 20
1.7065572E+01
 70
0
  0
VERTEX
  5
331
100
AcDbEntity
  8
199
100
AcDbVertex
100
AcDb2dVertex
 42
0.0
 10
-1.5802664E+02
 20
1.7065572E+01
 70
0
  0
SEQEND
  5
332
100
AcDbEntity
  0
POLYLINE
  5
333
100
AcDbEntity
  8
199
100
AcDb2dPolyline
  6
CONTINUOUS
 62
2
 66
1
 40
2.0E-01
 41
2.0E-01
 70
0
  0
VERTEX
  5
334
100
AcDbEntity
  8
199
100
AcDbVertex
100
AcDb2dVertex
 42
0.0
 10
-1.5802664E+02
 20
1.7065572E+01
 70
0
  0
VERTEX
  5
335
100
AcDbEntity
  8
199
100
AcDbVertex
100
AcDb2dVertex
 42
0.0
 10
-1.611879E+02
 20
2.1361819E+01
 70
0
  0
SEQEND
  5
336
100
AcDbEntity
  0
POLYLINE
  5
337
100
AcDbEntity
  8
199
100
AcDb2dPolyline
  6
CONTINUOUS
 62
2
 66
1
 40
2.0E-01
 41
2.0E-01
 70
0
  0
VERTEX
  5
338
100
AcDbEntity
  8
199
100
AcDbVertex
100
AcDb2dVertex
 42
0.0
 10
-1.5988895E+02
 20
1.7065572E+01
 70
0
  0
VERTEX
  5
339
100
AcDbEntity
  8
199
100
AcDbVertex
100
AcDb2dVertex
 42
0.0
 10
-1.6220453E+02
 20
2.0212509E+01
 70
0
  0
SEQEND
  5
33a
100
AcDbEntity
  0
POLYLINE
  5
33b
100
AcDbEntity
  8
199
100
AcDb2dPolyline
  6
CONTINUOUS
 62
1
 66
1
 40
1.0E-01
 41
1.0E-01
 70
0
  0
VERTEX
  5
33c
100
AcDbEntity
  8
199
100
AcDbVertex
100
AcDb2dVertex
 42
0.0
 10
-1.7893373E+02
 20
0.0
 70
0
  0
VERTEX
  5
33d
100
AcDbEntity
  8
199
100
AcDbVertex
100
AcDb2dVertex
 42
0.0
 10
-1.7893373E+02
 20
1.0000331E+01
 70
0
  0
SEQEND
  5
33e
100
AcDbEntity
  0
TEXT
  5
33f
100
AcDbEntity
  8
199
100
AcDbText
  6
CONTINUOUS
 62
1
 10
-9.7741861E+01
 20
9.0773335E+01
 40
2.500293
  1
XX
100
AcDbText
  0
TEXT
  5
340
100
AcDbEntity
  8
199
100
AcDbText
  6
CONTINUOUS
 62
1
 10
-6.4736816E+01
 20
9.0773335E+01
 40
2.500293
  1
XX
100
AcDbText
  0
TEXT
  5
341
100
AcDbEntity
  8
199
100
AcDbText
  6
CONTINUOUS
 62
1
 10
-3.1732612E+01
 20
9.0773335E+01
 40
2.500293
  1
XX
100
AcDbText
  0
TEXT
  5
342
100
AcDbEntity
  8
199
100
AcDbText
  6
CONTINUOUS
 62
1
 10
-1.5274326E+02
 20
9.0773335E+01
 40
2.500293
  1
XX
100
AcDbText
  0
TEXT
  5
343
100
AcDbEntity
  8
199
100
AcDbText
  6
CONTINUOUS
 62
1
 10
-1.6474097E+02
 20
9.0773335E+01
 40
2.500293
  1
XX
100
AcDbText
  0
TEXT
  5
344
100
AcDbEntity
  8
199
100
AcDbText
  6
CONTINUOUS
 62
1
 10
-1.7673951E+02
 20
9.0773335E+01
 40
2.500293
  1
02
100
AcDbText
  0
POLYLINE
  5
345
100
AcDbEntity
  8
199
100
AcDb2dPolyline
  6
CONTINUOUS
 62
3
 66
1
 40
2.0E-01
 41
2.0E-01
 70
0
  0
VERTEX
  5
346
100
AcDbEntity
  8
199
100
AcDbVertex
100
AcDb2dVertex
 42
0.0
 10
-1.8000007E+02
 20
9.600015E+01
 70
0
  0
VERTEX
  5
347
100
AcDbEntity
  8
199
100
AcDbVertex
100
AcDb2dVertex
 42
0.0
 10
0.0
 20
9.600015E+01
 70
0
  0
SEQEND
  5
348
100
AcDbEntity
  0
POLYLINE
  5
349
100
AcDbEntity
  8
199
100
AcDb2dPolyline
  6
CONTINUOUS
 62
3
 66
1
 40
2.0E-01
 41
2.0E-01
 70
0
  0
VERTEX
  5
34a
100
AcDbEntity
  8
199
100
AcDbVertex
100
AcDb2dVertex
 42
0.0
 10
-3.4999897E+01
 20
9.2000354E+01
 70
0
  0
VERTEX
  5
34b
100
AcDbEntity
  8
199
100
AcDbVertex
100
AcDb2dVertex
 42
0.0
 10
-3.4999897E+01
 20
9.600015E+01
 70
0
  0
SEQEND
  5
34c
100
AcDbEntity
  0
POLYLINE
  5
34d
100
AcDbEntity
  8
199
100
AcDb2dPolyline
  6
CONTINUOUS
 62
3
 66
1
 40
2.0E-01
 41
2.0E-01
 70
0
  0
VERTEX
  5
34e
100
AcDbEntity
  8
199
100
AcDbVertex
100
AcDb2dVertex
 42
0.0
 10
-1.0099989E+02
 20
8.8000558E+01
 70
0
  0
VERTEX
  5
34f
100
AcDbEntity
  8
199
100
AcDbVertex
100
AcDb2dVertex
 42
0.0
 10
-1.0099989E+02
 20
9.600015E+01
 70
0
  0
SEQEND
  5
350
100
AcDbEntity
  0
POLYLINE
  5
351
100
AcDbEntity
  8
199
100
AcDb2dPolyline
  6
CONTINUOUS
 62
3
 66
1
 40
2.0E-01
 41
2.0E-01
 70
0
  0
VERTEX
  5
352
100
AcDbEntity
  8
199
100
AcDbVertex
100
AcDb2dVertex
 42
0.0
 10
-6.7999896E+01
 20
8.8000558E+01
 70
0
  0
VERTEX
  5
353
100
AcDbEntity
  8
199
100
AcDbVertex
100
AcDb2dVertex
 42
0.0
 10
-6.7999896E+01
 20
9.600015E+01
 70
0
  0
SEQEND
  5
354
100
AcDbEntity
  0
POLYLINE
  5
355
100
AcDbEntity
  8
199
100
AcDb2dPolyline
  6
CONTINUOUS
 62
3
 66
1
 40
2.0E-01
 41
2.0E-01
 70
0
  0
VERTEX
  5
356
100
AcDbEntity
  8
199
100
AcDbVertex
100
AcDb2dVertex
 42
0.0
 10
-3.4999897E+01
 20
8.8000558E+01
 70
0
  0
VERTEX
  5
357
100
AcDbEntity
  8
199
100
AcDbVertex
100
AcDb2dVertex
 42
0.0
 10
-3.4999897E+01
 20
9.2000354E+01
 70
0
  0
SEQEND
  5
358
100
AcDbEntity
  0
POLYLINE
  5
359
100
AcDbEntity
  8
199
100
AcDb2dPolyline
  6
CONTINUOUS
 62
3
 66
1
 40
2.0E-01
 41
2.0E-01
 70
0
  0
VERTEX
  5
35a
100
AcDbEntity
  8
199
100
AcDbVertex
100
AcDb2dVertex
 42
0.0
 10
-1.6799984E+02
 20
8.8000558E+01
 70
0
  0
VERTEX
  5
35b
100
AcDbEntity
  8
199
100
AcDbVertex
100
AcDb2dVertex
 42
0.0
 10
-1.6799984E+02
 20
9.600015E+01
 70
0
  0
SEQEND
  5
35c
100
AcDbEntity
  0
POLYLINE
  5
35d
100
AcDbEntity
  8
199
100
AcDb2dPolyline
  6
CONTINUOUS
 62
3
 66
1
 40
2.0E-01
 41
2.0E-01
 70
0
  0
VERTEX
  5
35e
100
AcDbEntity
  8
199
100
AcDbVertex
100
AcDb2dVertex
 42
0.0
 10
-1.5600045E+02
 20
8.8000558E+01
 70
0
  0
VERTEX
  5
35f
100
AcDbEntity
  8
199
100
AcDbVertex
100
AcDb2dVertex
 42
0.0
 10
-1.5600045E+02
 20
9.600015E+01
 70
0
  0
SEQEND
  5
360
100
AcDbEntity
  0
TEXT
  5
361
100
AcDbEntity
  8
199
100
AcDbText
  6
CONTINUOUS
 62
1
 10
-9.7741861E+01
 20
9.8772927E+01
 40
2.500293
  1
XX
100
AcDbText
  0
TEXT
  5
362
100
AcDbEntity
  8
199
100
AcDbText
  6
CONTINUOUS
 62
1
 10
-6.4736816E+01
 20
9.8772927E+01
 40
2.500293
  1
XX
100
AcDbText
  0
TEXT
  5
363
100
AcDbEntity
  8
199
100
AcDbText
  6
CONTINUOUS
 62
1
 10
-3.1732612E+01
 20
9.8772927E+01
 40
2.500293
  1
XX
100
AcDbText
  0
TEXT
  5
364
100
AcDbEntity
  8
199
100
AcDbText
  6
CONTINUOUS
 62
1
 10
-1.5274326E+02
 20
9.8772927E+01
 40
2.500293
  1
XX
100
AcDbText
  0
TEXT
  5
365
100
AcDbEntity
  8
199
100
AcDbText
  6
CONTINUOUS
 62
1
 10
-1.6474097E+02
 20
9.8772927E+01
 40
2.500293
  1
XX
100
AcDbText
  0
TEXT
  5
366
100
AcDbEntity
  8
199
100
AcDbText
  6
CONTINUOUS
 62
1
 10
-1.7673951E+02
 20
9.8772927E+01
 40
2.500293
  1
03
100
AcDbText
  0
POLYLINE
  5
367
100
AcDbEntity
  8
199
100
AcDb2dPolyline
  6
CONTINUOUS
 62
3
 66
1
 40
2.0E-01
 41
2.0E-01
 70
0
  0
VERTEX
  5
368
100
AcDbEntity
  8
199
100
AcDbVertex
100
AcDb2dVertex
 42
0.0
 10
-1.8000007E+02
 20
1.0399974E+02
 70
0
  0
VERTEX
  5
369
100
AcDbEntity
  8
199
100
AcDbVertex
100
AcDb2dVertex
 42
0.0
 10
0.0
 20
1.0399974E+02
 70
0
  0
SEQEND
  5
36a
100
AcDbEntity
  0
POLYLINE
  5
36b
100
AcDbEntity
  8
199
100
AcDb2dPolyline
  6
CONTINUOUS
 62
3
 66
1
 40
2.0E-01
 41
2.0E-01
 70
0
  0
VERTEX
  5
36c
100
AcDbEntity
  8
199
100
AcDbVertex
100
AcDb2dVertex
 42
0.0
 10
-3.4999897E+01
 20
9.9999946E+01
 70
0
  0
VERTEX
  5
36d
100
AcDbEntity
  8
199
100
AcDbVertex
100
AcDb2dVertex
 42
0.0
 10
-3.4999897E+01
 20
1.0399974E+02
 70
0
  0
SEQEND
  5
36e
100
AcDbEntity
  0
POLYLINE
  5
36f
100
AcDbEntity
  8
199
100
AcDb2dPolyline
  6
CONTINUOUS
 62
3
 66
1
 40
2.0E-01
 41
2.0E-01
 70
0
  0
VERTEX
  5
370
100
AcDbEntity
  8
199
100
AcDbVertex
100
AcDb2dVertex
 42
0.0
 10
-1.0099989E+02
 20
9.600015E+01
 70
0
  0
VERTEX
  5
371
100
AcDbEntity
  8
199
100
AcDbVertex
100
AcDb2dVertex
 42
0.0
 10
-1.0099989E+02
 20
1.0399974E+02
 70
0
  0
SEQEND
  5
372
100
AcDbEntity
  0
POLYLINE
  5
373
100
AcDbEntity
  8
199
100
AcDb2dPolyline
  6
CONTINUOUS
 62
3
 66
1
 40
2.0E-01
 41
2.0E-01
 70
0
  0
VERTEX
  5
374
100
AcDbEntity
  8
199
100
AcDbVertex
100
AcDb2dVertex
 42
0.0
 10
-6.7999896E+01
 20
9.600015E+01
 70
0
  0
VERTEX
  5
375
100
AcDbEntity
  8
199
100
AcDbVertex
100
AcDb2dVertex
 42
0.0
 10
-6.7999896E+01
 20
1.0399974E+02
 70
0
  0
SEQEND
  5
376
100
AcDbEntity
  0
POLYLINE
  5
377
100
AcDbEntity
  8
199
100
AcDb2dPolyline
  6
CONTINUOUS
 62
3
 66
1
 40
2.0E-01
 41
2.0E-01
 70
0
  0
VERTEX
  5
378
100
AcDbEntity
  8
199
100
AcDbVertex
100
AcDb2dVertex
 42
0.0
 10
-3.4999897E+01
 20
9.600015E+01
 70
0
  0
VERTEX
  5
379
100
AcDbEntity
  8
199
100
AcDbVertex
100
AcDb2dVertex
 42
0.0
 10
-3.4999897E+01
 20
9.9999946E+01
 70
0
  0
SEQEND
  5
37a
100
AcDbEntity
  0
POLYLINE
  5
37b
100
AcDbEntity
  8
199
100
AcDb2dPolyline
  6
CONTINUOUS
 62
3
 66
1
 40
2.0E-01
 41
2.0E-01
 70
0
  0
VERTEX
  5
37c
100
AcDbEntity
  8
199
100
AcDbVertex
100
AcDb2dVertex
 42
0.0
 10
-1.6799984E+02
 20
9.600015E+01
 70
0
  0
VERTEX
  5
37d
100
AcDbEntity
  8
199
100
AcDbVertex
100
AcDb2dVertex
 42
0.0
 10
-1.6799984E+02
 20
1.0399974E+02
 70
0
  0
SEQEND
  5
37e
100
AcDbEntity
  0
POLYLINE
  5
37f
100
AcDbEntity
  8
199
100
AcDb2dPolyline
  6
CONTINUOUS
 62
3
 66
1
 40
2.0E-01
 41
2.0E-01
 70
0
  0
VERTEX
  5
380
100
AcDbEntity
  8
199
100
AcDbVertex
100
AcDb2dVertex
 42
0.0
 10
-1.5600045E+02
 20
9.600015E+01
 70
0
  0
VERTEX
  5
381
100
AcDbEntity
  8
199
100
AcDbVertex
100
AcDb2dVertex
 42
0.0
 10
-1.5600045E+02
 20
1.0399974E+02
 70
0
  0
SEQEND
  5
382
100
AcDbEntity
  0
TEXT
  5
383
100
AcDbEntity
  8
199
100
AcDbText
  6
CONTINUOUS
 62
1
 10
-9.7741861E+01
 20
1.0677252E+02
 40
2.500293
  1
XX
100
AcDbText
  0
TEXT
  5
384
100
AcDbEntity
  8
199
100
AcDbText
  6
CONTINUOUS
 62
1
 10
-6.4736816E+01
 20
1.0677252E+02
 40
2.500293
  1
XX
100
AcDbText
  0
TEXT
  5
385
100
AcDbEntity
  8
199
100
AcDbText
  6
CONTINUOUS
 62
1
 10
-3.1732612E+01
 20
1.0677252E+02
 40
2.500293
  1
XX
100
AcDbText
  0
TEXT
  5
386
100
AcDbEntity
  8
199
100
AcDbText
  6
CONTINUOUS
 62
1
 10
-1.5274326E+02
 20
1.0677252E+02
 40
2.500293
  1
XX
100
AcDbText
  0
TEXT
  5
387
100
AcDbEntity
  8
199
100
AcDbText
  6
CONTINUOUS
 62
1
 10
-1.6474097E+02
 20
1.0677252E+02
 40
2.500293
  1
XX
100
AcDbText
  0
TEXT
  5
388
100
AcDbEntity
  8
199
100
AcDbText
  6
CONTINUOUS
 62
1
 10
-1.7673951E+02
 20
1.0677252E+02
 40
2.500293
  1
04
100
AcDbText
  0
POLYLINE
  5
389
100
AcDbEntity
  8
199
100
AcDb2dPolyline
  6
CONTINUOUS
 62
3
 66
1
 40
2.0E-01
 41
2.0E-01
 70
0
  0
VERTEX
  5
38a
100
AcDbEntity
  8
199
100
AcDbVertex
100
AcDb2dVertex
 42
0.0
 10
-1.8000007E+02
 20
1.1199933E+02
 70
0
  0
VERTEX
  5
38b
100
AcDbEntity
  8
199
100
AcDbVertex
100
AcDb2dVertex
 42
0.0
 10
0.0
 20
1.1199933E+02
 70
0
  0
SEQEND
  5
38c
100
AcDbEntity
  0
POLYLINE
  5
38d
100
AcDbEntity
  8
199
100
AcDb2dPolyline
  6
CONTINUOUS
 62
3
 66
1
 40
2.0E-01
 41
2.0E-01
 70
0
  0
VERTEX
  5
38e
100
AcDbEntity
  8
199
100
AcDbVertex
100
AcDb2dVertex
 42
0.0
 10
-3.4999897E+01
 20
1.0799954E+02
 70
0
  0
VERTEX
  5
38f
100
AcDbEntity
  8
199
100
AcDbVertex
100
AcDb2dVertex
 42
0.0
 10
-3.4999897E+01
 20
1.1199933E+02
 70
0
  0
SEQEND
  5
390
100
AcDbEntity
  0
POLYLINE
  5
391
100
AcDbEntity
  8
199
100
AcDb2dPolyline
  6
CONTINUOUS
 62
3
 66
1
 40
2.0E-01
 41
2.0E-01
 70
0
  0
VERTEX
  5
392
100
AcDbEntity
  8
199
100
AcDbVertex
100
AcDb2dVertex
 42
0.0
 10
-1.0099989E+02
 20
1.0399974E+02
 70
0
  0
VERTEX
  5
393
100
AcDbEntity
  8
199
100
AcDbVertex
100
AcDb2dVertex
 42
0.0
 10
-1.0099989E+02
 20
1.1199933E+02
 70
0
  0
SEQEND
  5
394
100
AcDbEntity
  0
POLYLINE
  5
395
100
AcDbEntity
  8
199
100
AcDb2dPolyline
  6
CONTINUOUS
 62
3
 66
1
 40
2.0E-01
 41
2.0E-01
 70
0
  0
VERTEX
  5
396
100
AcDbEntity
  8
199
100
AcDbVertex
100
AcDb2dVertex
 42
0.0
 10
-6.7999896E+01
 20
1.0399974E+02
 70
0
  0
VERTEX
  5
397
100
AcDbEntity
  8
199
100
AcDbVertex
100
AcDb2dVertex
 42
0.0
 10
-6.7999896E+01
 20
1.1199933E+02
 70
0
  0
SEQEND
  5
398
100
AcDbEntity
  0
POLYLINE
  5
399
100
AcDbEntity
  8
199
100
AcDb2dPolyline
  6
CONTINUOUS
 62
3
 66
1
 40
2.0E-01
 41
2.0E-01
 70
0
  0
VERTEX
  5
39a
100
AcDbEntity
  8
199
100
AcDbVertex
100
AcDb2dVertex
 42
0.0
 10
-3.4999897E+01
 20
1.0399974E+02
 70
0
  0
VERTEX
  5
39b
100
AcDbEntity
  8
199
100
AcDbVertex
100
AcDb2dVertex
 42
0.0
 10
-3.4999897E+01
 20
1.0799954E+02
 70
0
  0
SEQEND
  5
39c
100
AcDbEntity
  0
POLYLINE
  5
39d
100
AcDbEntity
  8
199
100
AcDb2dPolyline
  6
CONTINUOUS
 62
3
 66
1
 40
2.0E-01
 41
2.0E-01
 70
0
  0
VERTEX
  5
39e
100
AcDbEntity
  8
199
100
AcDbVertex
100
AcDb2dVertex
 42
0.0
 10
-1.6799984E+02
 20
1.0399974E+02
 70
0
  0
VERTEX
  5
39f
100
AcDbEntity
  8
199
100
AcDbVertex
100
AcDb2dVertex
 42
0.0
 10
-1.6799984E+02
 20
1.1199933E+02
 70
0
  0
SEQEND
  5
3a0
100
AcDbEntity
  0
POLYLINE
  5
3a1
100
AcDbEntity
  8
199
100
AcDb2dPolyline
  6
CONTINUOUS
 62
3
 66
1
 40
2.0E-01
 41
2.0E-01
 70
0
  0
VERTEX
  5
3a2
100
AcDbEntity
  8
199
100
AcDbVertex
100
AcDb2dVertex
 42
0.0
 10
-1.5600045E+02
 20
1.0399974E+02
 70
0
  0
VERTEX
  5
3a3
100
AcDbEntity
  8
199
100
AcDbVertex
100
AcDb2dVertex
 42
0.0
 10
-1.5600045E+02
 20
1.1199933E+02
 70
0
  0
SEQEND
  5
3a4
100
AcDbEntity
  0
TEXT
  5
3a5
100
AcDbEntity
  8
199
100
AcDbText
  6
CONTINUOUS
 62
1
 10
-9.7741861E+01
 20
1.1477211E+02
 40
2.500293
  1
XX
100
AcDbText
  0
TEXT
  5
3a6
100
AcDbEntity
  8
199
100
AcDbText
  6
CONTINUOUS
 62
1
 10
-6.4736816E+01
 20
1.1477211E+02
 40
2.500293
  1
XX
100
AcDbText
  0
TEXT
  5
3a7
100
AcDbEntity
  8
199
100
AcDbText
  6
CONTINUOUS
 62
1
 10
-3.1732612E+01
 20
1.1477211E+02
 40
2.500293
  1
XX
100
AcDbText
  0
TEXT
  5
3a8
100
AcDbEntity
  8
199
100
AcDbText
  6
CONTINUOUS
 62
1
 10
-1.5274326E+02
 20
1.1477211E+02
 40
2.500293
  1
XX
100
AcDbText
  0
TEXT
  5
3a9
100
AcDbEntity
  8
199
100
AcDbText
  6
CONTINUOUS
 62
1
 10
-1.6474097E+02
 20
1.1477211E+02
 40
2.500293
  1
XX
100
AcDbText
  0
TEXT
  5
3aa
100
AcDbEntity
  8
199
100
AcDbText
  6
CONTINUOUS
 62
1
 10
-1.7673951E+02
 20
1.1477211E+02
 40
2.500293
  1
05
100
AcDbText
  0
POLYLINE
  5
3ab
100
AcDbEntity
  8
199
100
AcDb2dPolyline
  6
CONTINUOUS
 62
3
 66
1
 40
2.0E-01
 41
2.0E-01
 70
0
  0
VERTEX
  5
3ac
100
AcDbEntity
  8
199
100
AcDbVertex
100
AcDb2dVertex
 42
0.0
 10
-1.8000007E+02
 20
1.1999893E+02
 70
0
  0
VERTEX
  5
3ad
100
AcDbEntity
  8
199
100
AcDbVertex
100
AcDb2dVertex
 42
0.0
 10
0.0
 20
1.1999893E+02
 70
0
  0
SEQEND
  5
3ae
100
AcDbEntity
  0
POLYLINE
  5
3af
100
AcDbEntity
  8
199
100
AcDb2dPolyline
  6
CONTINUOUS
 62
3
 66
1
 40
2.0E-01
 41
2.0E-01
 70
0
  0
VERTEX
  5
3b0
100
AcDbEntity
  8
199
100
AcDbVertex
100
AcDb2dVertex
 42
0.0
 10
-3.4999897E+01
 20
1.1599913E+02
 70
0
  0
VERTEX
  5
3b1
100
AcDbEntity
  8
199
100
AcDbVertex
100
AcDb2dVertex
 42
0.0
 10
-3.4999897E+01
 20
1.1999893E+02
 70
0
  0
SEQEND
  5
3b2
100
AcDbEntity
  0
POLYLINE
  5
3b3
100
AcDbEntity
  8
199
100
AcDb2dPolyline
  6
CONTINUOUS
 62
3
 66
1
 40
2.0E-01
 41
2.0E-01
 70
0
  0
VERTEX
  5
3b4
100
AcDbEntity
  8
199
100
AcDbVertex
100
AcDb2dVertex
 42
0.0
 10
-1.0099989E+02
 20
1.1199933E+02
 70
0
  0
VERTEX
  5
3b5
100
AcDbEntity
  8
199
100
AcDbVertex
100
AcDb2dVertex
 42
0.0
 10
-1.0099989E+02
 20
1.1999893E+02
 70
0
  0
SEQEND
  5
3b6
100
AcDbEntity
  0
POLYLINE
  5
3b7
100
AcDbEntity
  8
199
100
AcDb2dPolyline
  6
CONTINUOUS
 62
3
 66
1
 40
2.0E-01
 41
2.0E-01
 70
0
  0
VERTEX
  5
3b8
100
AcDbEntity
  8
199
100
AcDbVertex
100
AcDb2dVertex
 42
0.0
 10
-6.7999896E+01
 20
1.1199933E+02
 70
0
  0
VERTEX
  5
3b9
100
AcDbEntity
  8
199
100
AcDbVertex
100
AcDb2dVertex
 42
0.0
 10
-6.7999896E+01
 20
1.1999893E+02
 70
0
  0
SEQEND
  5
3ba
100
AcDbEntity
  0
POLYLINE
  5
3bb
100
AcDbEntity
  8
199
100
AcDb2dPolyline
  6
CONTINUOUS
 62
3
 66
1
 40
2.0E-01
 41
2.0E-01
 70
0
  0
VERTEX
  5
3bc
100
AcDbEntity
  8
199
100
AcDbVertex
100
AcDb2dVertex
 42
0.0
 10
-3.4999897E+01
 20
1.1199933E+02
 70
0
  0
VERTEX
  5
3bd
100
AcDbEntity
  8
199
100
AcDbVertex
100
AcDb2dVertex
 42
0.0
 10
-3.4999897E+01
 20
1.1599913E+02
 70
0
  0
SEQEND
  5
3be
100
AcDbEntity
  0
POLYLINE
  5
3bf
100
AcDbEntity
  8
199
100
AcDb2dPolyline
  6
CONTINUOUS
 62
3
 66
1
 40
2.0E-01
 41
2.0E-01
 70
0
  0
VERTEX
  5
3c0
100
AcDbEntity
  8
199
100
AcDbVertex
100
AcDb2dVertex
 42
0.0
 10
-1.6799984E+02
 20
1.1199933E+02
 70
0
  0
VERTEX
  5
3c1
100
AcDbEntity
  8
199
100
AcDbVertex
100
AcDb2dVertex
 42
0.0
 10
-1.6799984E+02
 20
1.1999893E+02
 70
0
  0
SEQEND
  5
3c2
100
AcDbEntity
  0
POLYLINE
  5
3c3
100
AcDbEntity
  8
199
100
AcDb2dPolyline
  6
CONTINUOUS
 62
3
 66
1
 40
2.0E-01
 41
2.0E-01
 70
0
  0
VERTEX
  5
3c4
100
AcDbEntity
  8
199
100
AcDbVertex
100
AcDb2dVertex
 42
0.0
 10
-1.5600045E+02
 20
1.1199933E+02
 70
0
  0
VERTEX
  5
3c5
100
AcDbEntity
  8
199
100
AcDbVertex
100
AcDb2dVertex
 42
0.0
 10
-1.5600045E+02
 20
1.1999893E+02
 70
0
  0
SEQEND
  5
3c6
100
AcDbEntity
  0
TEXT
  5
3c7
100
AcDbEntity
  8
199
100
AcDbText
  6
CONTINUOUS
 62
1
 10
-9.7741861E+01
 20
1.227717E+02
 40
2.500293
  1
XX
100
AcDbText
  0
TEXT
  5
3c8
100
AcDbEntity
  8
199
100
AcDbText
  6
CONTINUOUS
 62
1
 10
-6.4736816E+01
 20
1.227717E+02
 40
2.500293
  1
XX
100
AcDbText
  0
TEXT
  5
3c9
100
AcDbEntity
  8
199
100
AcDbText
  6
CONTINUOUS
 62
1
 10
-3.1732612E+01
 20
1.227717E+02
 40
2.500293
  1
XX
100
AcDbText
  0
TEXT
  5
3ca
100
AcDbEntity
  8
199
100
AcDbText
  6
CONTINUOUS
 62
1
 10
-1.5274326E+02
 20
1.227717E+02
 40
2.500293
  1
XX
100
AcDbText
  0
TEXT
  5
3cb
100
AcDbEntity
  8
199
100
AcDbText
  6
CONTINUOUS
 62
1
 10
-1.6474097E+02
 20
1.227717E+02
 40
2.500293
  1
XX
100
AcDbText
  0
TEXT
  5
3cc
100
AcDbEntity
  8
199
100
AcDbText
  6
CONTINUOUS
 62
1
 10
-1.7673951E+02
 20
1.227717E+02
 40
2.500293
  1
06
100
AcDbText
  0
POLYLINE
  5
3cd
100
AcDbEntity
  8
199
100
AcDb2dPolyline
  6
CONTINUOUS
 62
3
 66
1
 40
2.0E-01
 41
2.0E-01
 70
0
  0
VERTEX
  5
3ce
100
AcDbEntity
  8
199
100
AcDbVertex
100
AcDb2dVertex
 42
0.0
 10
-1.8000007E+02
 20
1.2799852E+02
 70
0
  0
VERTEX
  5
3cf
100
AcDbEntity
  8
199
100
AcDbVertex
100
AcDb2dVertex
 42
0.0
 10
0.0
 20
1.2799852E+02
 70
0
  0
SEQEND
  5
3d0
100
AcDbEntity
  0
POLYLINE
  5
3d1
100
AcDbEntity
  8
199
100
AcDb2dPolyline
  6
CONTINUOUS
 62
3
 66
1
 40
2.0E-01
 41
2.0E-01
 70
0
  0
VERTEX
  5
3d2
100
AcDbEntity
  8
199
100
AcDbVertex
100
AcDb2dVertex
 42
0.0
 10
-3.4999897E+01
 20
1.2399872E+02
 70
0
  0
VERTEX
  5
3d3
100
AcDbEntity
  8
199
100
AcDbVertex
100
AcDb2dVertex
 42
0.0
 10
-3.4999897E+01
 20
1.2799852E+02
 70
0
  0
SEQEND
  5
3d4
100
AcDbEntity
  0
POLYLINE
  5
3d5
100
AcDbEntity
  8
199
100
AcDb2dPolyline
  6
CONTINUOUS
 62
3
 66
1
 40
2.0E-01
 41
2.0E-01
 70
0
  0
VERTEX
  5
3d6
100
AcDbEntity
  8
199
100
AcDbVertex
100
AcDb2dVertex
 42
0.0
 10
-1.0099989E+02
 20
1.1999893E+02
 70
0
  0
VERTEX
  5
3d7
100
AcDbEntity
  8
199
100
AcDbVertex
100
AcDb2dVertex
 42
0.0
 10
-1.0099989E+02
 20
1.2799852E+02
 70
0
  0
SEQEND
  5
3d8
100
AcDbEntity
  0
POLYLINE
  5
3d9
100
AcDbEntity
  8
199
100
AcDb2dPolyline
  6
CONTINUOUS
 62
3
 66
1
 40
2.0E-01
 41
2.0E-01
 70
0
  0
VERTEX
  5
3da
100
AcDbEntity
  8
199
100
AcDbVertex
100
AcDb2dVertex
 42
0.0
 10
-6.7999896E+01
 20
1.1999893E+02
 70
0
  0
VERTEX
  5
3db
100
AcDbEntity
  8
199
100
AcDbVertex
100
AcDb2dVertex
 42
0.0
 10
-6.7999896E+01
 20
1.2799852E+02
 70
0
  0
SEQEND
  5
3dc
100
AcDbEntity
  0
POLYLINE
  5
3dd
100
AcDbEntity
  8
199
100
AcDb2dPolyline
  6
CONTINUOUS
 62
3
 66
1
 40
2.0E-01
 41
2.0E-01
 70
0
  0
VERTEX
  5
3de
100
AcDbEntity
  8
199
100
AcDbVertex
100
AcDb2dVertex
 42
0.0
 10
-3.4999897E+01
 20
1.1999893E+02
 70
0
  0
VERTEX
  5
3df
100
AcDbEntity
  8
199
100
AcDbVertex
100
AcDb2dVertex
 42
0.0
 10
-3.4999897E+01
 20
1.2399872E+02
 70
0
  0
SEQEND
  5
3e0
100
AcDbEntity
  0
POLYLINE
  5
3e1
100
AcDbEntity
  8
199
100
AcDb2dPolyline
  6
CONTINUOUS
 62
3
 66
1
 40
2.0E-01
 41
2.0E-01
 70
0
  0
VERTEX
  5
3e2
100
AcDbEntity
  8
199
100
AcDbVertex
100
AcDb2dVertex
 42
0.0
 10
-1.6799984E+02
 20
1.1999893E+02
 70
0
  0
VERTEX
  5
3e3
100
AcDbEntity
  8
199
100
AcDbVertex
100
AcDb2dVertex
 42
0.0
 10
-1.6799984E+02
 20
1.2799852E+02
 70
0
  0
SEQEND
  5
3e4
100
AcDbEntity
  0
POLYLINE
  5
3e5
100
AcDbEntity
  8
199
100
AcDb2dPolyline
  6
CONTINUOUS
 62
3
 66
1
 40
2.0E-01
 41
2.0E-01
 70
0
  0
VERTEX
  5
3e6
100
AcDbEntity
  8
199
100
AcDbVertex
100
AcDb2dVertex
 42
0.0
 10
-1.5600045E+02
 20
1.1999893E+02
 70
0
  0
VERTEX
  5
3e7
100
AcDbEntity
  8
199
100
AcDbVertex
100
AcDb2dVertex
 42
0.0
 10
-1.5600045E+02
 20
1.2799852E+02
 70
0
  0
SEQEND
  5
3e8
100
AcDbEntity
  0
TEXT
  5
3e9
100
AcDbEntity
  8
199
100
AcDbText
  6
CONTINUOUS
 62
1
 10
-9.7741861E+01
 20
1.307713E+02
 40
2.500293
  1
XX
100
AcDbText
  0
TEXT
  5
3ea
100
AcDbEntity
  8
199
100
AcDbText
  6
CONTINUOUS
 62
1
 10
-6.4736816E+01
 20
1.307713E+02
 40
2.500293
  1
XX
100
AcDbText
  0
TEXT
  5
3eb
100
AcDbEntity
  8
199
100
AcDbText
  6
CONTINUOUS
 62
1
 10
-3.1732612E+01
 20
1.307713E+02
 40
2.500293
  1
XX
100
AcDbText
  0
TEXT
  5
3ec
100
AcDbEntity
  8
199
100
AcDbText
  6
CONTINUOUS
 62
1
 10
-1.5274326E+02
 20
1.307713E+02
 40
2.500293
  1
XX
100
AcDbText
  0
TEXT
  5
3ed
100
AcDbEntity
  8
199
100
AcDbText
  6
CONTINUOUS
 62
1
 10
-1.6474097E+02
 20
1.307713E+02
 40
2.500293
  1
XX
100
AcDbText
  0
TEXT
  5
3ee
100
AcDbEntity
  8
199
100
AcDbText
  6
CONTINUOUS
 62
1
 10
-1.7673951E+02
 20
1.307713E+02
 40
2.500293
  1
07
100
AcDbText
  0
POLYLINE
  5
3ef
100
AcDbEntity
  8
199
100
AcDb2dPolyline
  6
CONTINUOUS
 62
3
 66
1
 40
2.0E-01
 41
2.0E-01
 70
0
  0
VERTEX
  5
3f0
100
AcDbEntity
  8
199
100
AcDbVertex
100
AcDb2dVertex
 42
0.0
 10
-1.8000007E+02
 20
1.3599811E+02
 70
0
  0
VERTEX
  5
3f1
100
AcDbEntity
  8
199
100
AcDbVertex
100
AcDb2dVertex
 42
0.0
 10
0.0
 20
1.3599811E+02
 70
0
  0
SEQEND
  5
3f2
100
AcDbEntity
  0
POLYLINE
  5
3f3
100
AcDbEntity
  8
199
100
AcDb2dPolyline
  6
CONTINUOUS
 62
3
 66
1
 40
2.0E-01
 41
2.0E-01
 70
0
  0
VERTEX
  5
3f4
100
AcDbEntity
  8
199
100
AcDbVertex
100
AcDb2dVertex
 42
0.0
 10
-3.4999897E+01
 20
1.3199831E+02
 70
0
  0
VERTEX
  5
3f5
100
AcDbEntity
  8
199
100
AcDbVertex
100
AcDb2dVertex
 42
0.0
 10
-3.4999897E+01
 20
1.3599811E+02
 70
0
  0
SEQEND
  5
3f6
100
AcDbEntity
  0
POLYLINE
  5
3f7
100
AcDbEntity
  8
199
100
AcDb2dPolyline
  6
CONTINUOUS
 62
3
 66
1
 40
2.0E-01
 41
2.0E-01
 70
0
  0
VERTEX
  5
3f8
100
AcDbEntity
  8
199
100
AcDbVertex
100
AcDb2dVertex
 42
0.0
 10
-1.0099989E+02
 20
1.2799852E+02
 70
0
  0
VERTEX
  5
3f9
100
AcDbEntity
  8
199
100
AcDbVertex
100
AcDb2dVertex
 42
0.0
 10
-1.0099989E+02
 20
1.3599811E+02
 70
0
  0
SEQEND
  5
3fa
100
AcDbEntity
  0
POLYLINE
  5
3fb
100
AcDbEntity
  8
199
100
AcDb2dPolyline
  6
CONTINUOUS
 62
3
 66
1
 40
2.0E-01
 41
2.0E-01
 70
0
  0
VERTEX
  5
3fc
100
AcDbEntity
  8
199
100
AcDbVertex
100
AcDb2dVertex
 42
0.0
 10
-6.7999896E+01
 20
1.2799852E+02
 70
0
  0
VERTEX
  5
3fd
100
AcDbEntity
  8
199
100
AcDbVertex
100
AcDb2dVertex
 42
0.0
 10
-6.7999896E+01
 20
1.3599811E+02
 70
0
  0
SEQEND
  5
3fe
100
AcDbEntity
  0
POLYLINE
  5
3ff
100
AcDbEntity
  8
199
100
AcDb2dPolyline
  6
CONTINUOUS
 62
3
 66
1
 40
2.0E-01
 41
2.0E-01
 70
0
  0
VERTEX
  5
400
100
AcDbEntity
  8
199
100
AcDbVertex
100
AcDb2dVertex
 42
0.0
 10
-3.4999897E+01
 20
1.2799852E+02
 70
0
  0
VERTEX
  5
401
100
AcDbEntity
  8
199
100
AcDbVertex
100
AcDb2dVertex
 42
0.0
 10
-3.4999897E+01
 20
1.3199831E+02
 70
0
  0
SEQEND
  5
402
100
AcDbEntity
  0
POLYLINE
  5
403
100
AcDbEntity
  8
199
100
AcDb2dPolyline
  6
CONTINUOUS
 62
3
 66
1
 40
2.0E-01
 41
2.0E-01
 70
0
  0
VERTEX
  5
404
100
AcDbEntity
  8
199
100
AcDbVertex
100
AcDb2dVertex
 42
0.0
 10
-1.6799984E+02
 20
1.2799852E+02
 70
0
  0
VERTEX
  5
405
100
AcDbEntity
  8
199
100
AcDbVertex
100
AcDb2dVertex
 42
0.0
 10
-1.6799984E+02
 20
1.3599811E+02
 70
0
  0
SEQEND
  5
406
100
AcDbEntity
  0
POLYLINE
  5
407
100
AcDbEntity
  8
199
100
AcDb2dPolyline
  6
CONTINUOUS
 62
3
 66
1
 40
2.0E-01
 41
2.0E-01
 70
0
  0
VERTEX
  5
408
100
AcDbEntity
  8
199
100
AcDbVertex
100
AcDb2dVertex
 42
0.0
 10
-1.5600045E+02
 20
1.2799852E+02
 70
0
  0
VERTEX
  5
409
100
AcDbEntity
  8
199
100
AcDbVertex
100
AcDb2dVertex
 42
0.0
 10
-1.5600045E+02
 20
1.3599811E+02
 70
0
  0
SEQEND
  5
40a
100
AcDbEntity
  0
TEXT
  5
40b
100
AcDbEntity
  8
199
100
AcDbText
  6
CONTINUOUS
 62
1
 10
-9.7741861E+01
 20
1.3877089E+02
 40
2.500293
  1
XX
100
AcDbText
  0
TEXT
  5
40c
100
AcDbEntity
  8
199
100
AcDbText
  6
CONTINUOUS
 62
1
 10
-6.4736816E+01
 20
1.3877089E+02
 40
2.500293
  1
XX
100
AcDbText
  0
TEXT
  5
40d
100
AcDbEntity
  8
199
100
AcDbText
  6
CONTINUOUS
 62
1
 10
-3.1732612E+01
 20
1.3877089E+02
 40
2.500293
  1
XX
100
AcDbText
  0
TEXT
  5
40e
100
AcDbEntity
  8
199
100
AcDbText
  6
CONTINUOUS
 62
1
 10
-1.5274326E+02
 20
1.3877089E+02
 40
2.500293
  1
XX
100
AcDbText
  0
TEXT
  5
40f
100
AcDbEntity
  8
199
100
AcDbText
  6
CONTINUOUS
 62
1
 10
-1.6474097E+02
 20
1.3877089E+02
 40
2.500293
  1
XX
100
AcDbText
  0
TEXT
  5
410
100
AcDbEntity
  8
199
100
AcDbText
  6
CONTINUOUS
 62
1
 10
-1.7673951E+02
 20
1.3877089E+02
 40
2.500293
  1
08
100
AcDbText
  0
POLYLINE
  5
411
100
AcDbEntity
  8
199
100
AcDb2dPolyline
  6
CONTINUOUS
 62
3
 66
1
 40
2.0E-01
 41
2.0E-01
 70
0
  0
VERTEX
  5
412
100
AcDbEntity
  8
199
100
AcDbVertex
100
AcDb2dVertex
 42
0.0
 10
-1.8000007E+02
 20
1.439977E+02
 70
0
  0
VERTEX
  5
413
100
AcDbEntity
  8
199
100
AcDbVertex
100
AcDb2dVertex
 42
0.0
 10
0.0
 20
1.439977E+02
 70
0
  0
SEQEND
  5
414
100
AcDbEntity
  0
POLYLINE
  5
415
100
AcDbEntity
  8
199
100
AcDb2dPolyline
  6
CONTINUOUS
 62
3
 66
1
 40
2.0E-01
 41
2.0E-01
 70
0
  0
VERTEX
  5
416
100
AcDbEntity
  8
199
100
AcDbVertex
100
AcDb2dVertex
 42
0.0
 10
-3.4999897E+01
 20
1.3999791E+02
 70
0
  0
VERTEX
  5
417
100
AcDbEntity
  8
199
100
AcDbVertex
100
AcDb2dVertex
 42
0.0
 10
-3.4999897E+01
 20
1.439977E+02
 70
0
  0
SEQEND
  5
418
100
AcDbEntity
  0
POLYLINE
  5
419
100
AcDbEntity
  8
199
100
AcDb2dPolyline
  6
CONTINUOUS
 62
3
 66
1
 40
2.0E-01
 41
2.0E-01
 70
0
  0
VERTEX
  5
41a
100
AcDbEntity
  8
199
100
AcDbVertex
100
AcDb2dVertex
 42
0.0
 10
-1.0099989E+02
 20
1.3599811E+02
 70
0
  0
VERTEX
  5
41b
100
AcDbEntity
  8
199
100
AcDbVertex
100
AcDb2dVertex
 42
0.0
 10
-1.0099989E+02
 20
1.439977E+02
 70
0
  0
SEQEND
  5
41c
100
AcDbEntity
  0
POLYLINE
  5
41d
100
AcDbEntity
  8
199
100
AcDb2dPolyline
  6
CONTINUOUS
 62
3
 66
1
 40
2.0E-01
 41
2.0E-01
 70
0
  0
VERTEX
  5
41e
100
AcDbEntity
  8
199
100
AcDbVertex
100
AcDb2dVertex
 42
0.0
 10
-6.7999896E+01
 20
1.3599811E+02
 70
0
  0
VERTEX
  5
41f
100
AcDbEntity
  8
199
100
AcDbVertex
100
AcDb2dVertex
 42
0.0
 10
-6.7999896E+01
 20
1.439977E+02
 70
0
  0
SEQEND
  5
420
100
AcDbEntity
  0
POLYLINE
  5
421
100
AcDbEntity
  8
199
100
AcDb2dPolyline
  6
CONTINUOUS
 62
3
 66
1
 40
2.0E-01
 41
2.0E-01
 70
0
  0
VERTEX
  5
422
100
AcDbEntity
  8
199
100
AcDbVertex
100
AcDb2dVertex
 42
0.0
 10
-3.4999897E+01
 20
1.3599811E+02
 70
0
  0
VERTEX
  5
423
100
AcDbEntity
  8
199
100
AcDbVertex
100
AcDb2dVertex
 42
0.0
 10
-3.4999897E+01
 20
1.3999791E+02
 70
0
  0
SEQEND
  5
424
100
AcDbEntity
  0
POLYLINE
  5
425
100
AcDbEntity
  8
199
100
AcDb2dPolyline
  6
CONTINUOUS
 62
3
 66
1
 40
2.0E-01
 41
2.0E-01
 70
0
  0
VERTEX
  5
426
100
AcDbEntity
  8
199
100
AcDbVertex
100
AcDb2dVertex
 42
0.0
 10
-1.6799984E+02
 20
1.3599811E+02
 70
0
  0
VERTEX
  5
427
100
AcDbEntity
  8
199
100
AcDbVertex
100
AcDb2dVertex
 42
0.0
 10
-1.6799984E+02
 20
1.439977E+02
 70
0
  0
SEQEND
  5
428
100
AcDbEntity
  0
POLYLINE
  5
429
100
AcDbEntity
  8
199
100
AcDb2dPolyline
  6
CONTINUOUS
 62
3
 66
1
 40
2.0E-01
 41
2.0E-01
 70
0
  0
VERTEX
  5
42a
100
AcDbEntity
  8
199
100
AcDbVertex
100
AcDb2dVertex
 42
0.0
 10
-1.5600045E+02
 20
1.3599811E+02
 70
0
  0
VERTEX
  5
42b
100
AcDbEntity
  8
199
100
AcDbVertex
100
AcDb2dVertex
 42
0.0
 10
-1.5600045E+02
 20
1.439977E+02
 70
0
  0
SEQEND
  5
42c
100
AcDbEntity
  0
TEXT
  5
42d
100
AcDbEntity
  8
199
100
AcDbText
  6
CONTINUOUS
 62
1
 10
-9.7741861E+01
 20
1.4677048E+02
 40
2.500293
  1
XX
100
AcDbText
  0
TEXT
  5
42e
100
AcDbEntity
  8
199
100
AcDbText
  6
CONTINUOUS
 62
1
 10
-6.4736816E+01
 20
1.4677048E+02
 40
2.500293
  1
XX
100
AcDbText
  0
TEXT
  5
42f
100
AcDbEntity
  8
199
100
AcDbText
  6
CONTINUOUS
 62
1
 10
-3.1732612E+01
 20
1.4677048E+02
 40
2.500293
  1
XX
100
AcDbText
  0
TEXT
  5
430
100
AcDbEntity
  8
199
100
AcDbText
  6
CONTINUOUS
 62
1
 10
-1.5274326E+02
 20
1.4677048E+02
 40
2.500293
  1
XX
100
AcDbText
  0
TEXT
  5
431
100
AcDbEntity
  8
199
100
AcDbText
  6
CONTINUOUS
 62
1
 10
-1.6474097E+02
 20
1.4677048E+02
 40
2.500293
  1
XX
100
AcDbText
  0
TEXT
  5
432
100
AcDbEntity
  8
199
100
AcDbText
  6
CONTINUOUS
 62
1
 10
-1.7673951E+02
 20
1.4677048E+02
 40
2.500293
  1
09
100
AcDbText
  0
POLYLINE
  5
433
100
AcDbEntity
  8
199
100
AcDb2dPolyline
  6
CONTINUOUS
 62
3
 66
1
 40
2.0E-01
 41
2.0E-01
 70
0
  0
VERTEX
  5
434
100
AcDbEntity
  8
199
100
AcDbVertex
100
AcDb2dVertex
 42
0.0
 10
-1.8000007E+02
 20
1.5199729E+02
 70
0
  0
VERTEX
  5
435
100
AcDbEntity
  8
199
100
AcDbVertex
100
AcDb2dVertex
 42
0.0
 10
0.0
 20
1.5199729E+02
 70
0
  0
SEQEND
  5
436
100
AcDbEntity
  0
POLYLINE
  5
437
100
AcDbEntity
  8
199
100
AcDb2dPolyline
  6
CONTINUOUS
 62
3
 66
1
 40
2.0E-01
 41
2.0E-01
 70
0
  0
VERTEX
  5
438
100
AcDbEntity
  8
199
100
AcDbVertex
100
AcDb2dVertex
 42
0.0
 10
-3.4999897E+01
 20
1.479975E+02
 70
0
  0
VERTEX
  5
439
100
AcDbEntity
  8
199
100
AcDbVertex
100
AcDb2dVertex
 42
0.0
 10
-3.4999897E+01
 20
1.5199729E+02
 70
0
  0
SEQEND
  5
43a
100
AcDbEntity
  0
POLYLINE
  5
43b
100
AcDbEntity
  8
199
100
AcDb2dPolyline
  6
CONTINUOUS
 62
3
 66
1
 40
2.0E-01
 41
2.0E-01
 70
0
  0
VERTEX
  5
43c
100
AcDbEntity
  8
199
100
AcDbVertex
100
AcDb2dVertex
 42
0.0
 10
-1.0099989E+02
 20
1.439977E+02
 70
0
  0
VERTEX
  5
43d
100
AcDbEntity
  8
199
100
AcDbVertex
100
AcDb2dVertex
 42
0.0
 10
-1.0099989E+02
 20
1.5199729E+02
 70
0
  0
SEQEND
  5
43e
100
AcDbEntity
  0
POLYLINE
  5
43f
100
AcDbEntity
  8
199
100
AcDb2dPolyline
  6
CONTINUOUS
 62
3
 66
1
 40
2.0E-01
 41
2.0E-01
 70
0
  0
VERTEX
  5
440
100
AcDbEntity
  8
199
100
AcDbVertex
100
AcDb2dVertex
 42
0.0
 10
-6.7999896E+01
 20
1.439977E+02
 70
0
  0
VERTEX
  5
441
100
AcDbEntity
  8
199
100
AcDbVertex
100
AcDb2dVertex
 42
0.0
 10
-6.7999896E+01
 20
1.5199729E+02
 70
0
  0
SEQEND
  5
442
100
AcDbEntity
  0
POLYLINE
  5
443
100
AcDbEntity
  8
199
100
AcDb2dPolyline
  6
CONTINUOUS
 62
3
 66
1
 40
2.0E-01
 41
2.0E-01
 70
0
  0
VERTEX
  5
444
100
AcDbEntity
  8
199
100
AcDbVertex
100
AcDb2dVertex
 42
0.0
 10
-3.4999897E+01
 20
1.439977E+02
 70
0
  0
VERTEX
  5
445
100
AcDbEntity
  8
199
100
AcDbVertex
100
AcDb2dVertex
 42
0.0
 10
-3.4999897E+01
 20
1.479975E+02
 70
0
  0
SEQEND
  5
446
100
AcDbEntity
  0
POLYLINE
  5
447
100
AcDbEntity
  8
199
100
AcDb2dPolyline
  6
CONTINUOUS
 62
3
 66
1
 40
2.0E-01
 41
2.0E-01
 70
0
  0
VERTEX
  5
448
100
AcDbEntity
  8
199
100
AcDbVertex
100
AcDb2dVertex
 42
0.0
 10
-1.6799984E+02
 20
1.439977E+02
 70
0
  0
VERTEX
  5
449
100
AcDbEntity
  8
199
100
AcDbVertex
100
AcDb2dVertex
 42
0.0
 10
-1.6799984E+02
 20
1.5199729E+02
 70
0
  0
SEQEND
  5
44a
100
AcDbEntity
  0
POLYLINE
  5
44b
100
AcDbEntity
  8
199
100
AcDb2dPolyline
  6
CONTINUOUS
 62
3
 66
1
 40
2.0E-01
 41
2.0E-01
 70
0
  0
VERTEX
  5
44c
100
AcDbEntity
  8
199
100
AcDbVertex
100
AcDb2dVertex
 42
0.0
 10
-1.5600045E+02
 20
1.439977E+02
 70
0
  0
VERTEX
  5
44d
100
AcDbEntity
  8
199
100
AcDbVertex
100
AcDb2dVertex
 42
0.0
 10
-1.5600045E+02
 20
1.5199729E+02
 70
0
  0
SEQEND
  5
44e
100
AcDbEntity
  0
TEXT
  5
44f
100
AcDbEntity
  8
199
100
AcDbText
  6
CONTINUOUS
 62
1
 10
-9.7741861E+01
 20
1.5477007E+02
 40
2.500293
  1
XX
100
AcDbText
  0
TEXT
  5
450
100
AcDbEntity
  8
199
100
AcDbText
  6
CONTINUOUS
 62
1
 10
-6.4736816E+01
 20
1.5477007E+02
 40
2.500293
  1
XX
100
AcDbText
  0
TEXT
  5
451
100
AcDbEntity
  8
199
100
AcDbText
  6
CONTINUOUS
 62
1
 10
-3.1732612E+01
 20
1.5477007E+02
 40
2.500293
  1
XX
100
AcDbText
  0
TEXT
  5
452
100
AcDbEntity
  8
199
100
AcDbText
  6
CONTINUOUS
 62
1
 10
-1.5274326E+02
 20
1.5477007E+02
 40
2.500293
  1
XX
100
AcDbText
  0
TEXT
  5
453
100
AcDbEntity
  8
199
100
AcDbText
  6
CONTINUOUS
 62
1
 10
-1.6474097E+02
 20
1.5477007E+02
 40
2.500293
  1
XX
100
AcDbText
  0
TEXT
  5
454
100
AcDbEntity
  8
199
100
AcDbText
  6
CONTINUOUS
 62
1
 10
-1.7673951E+02
 20
1.5477007E+02
 40
2.500293
  1
10
100
AcDbText
  0
POLYLINE
  5
455
100
AcDbEntity
  8
199
100
AcDb2dPolyline
  6
CONTINUOUS
 62
3
 66
1
 40
2.0E-01
 41
2.0E-01
 70
0
  0
VERTEX
  5
456
100
AcDbEntity
  8
199
100
AcDbVertex
100
AcDb2dVertex
 42
0.0
 10
-1.8000007E+02
 20
1.5999689E+02
 70
0
  0
VERTEX
  5
457
100
AcDbEntity
  8
199
100
AcDbVertex
100
AcDb2dVertex
 42
0.0
 10
0.0
 20
1.5999689E+02
 70
0
  0
SEQEND
  5
458
100
AcDbEntity
  0
POLYLINE
  5
459
100
AcDbEntity
  8
199
100
AcDb2dPolyline
  6
CONTINUOUS
 62
3
 66
1
 40
2.0E-01
 41
2.0E-01
 70
0
  0
VERTEX
  5
45a
100
AcDbEntity
  8
199
100
AcDbVertex
100
AcDb2dVertex
 42
0.0
 10
-3.4999897E+01
 20
1.5599709E+02
 70
0
  0
VERTEX
  5
45b
100
AcDbEntity
  8
199
100
AcDbVertex
100
AcDb2dVertex
 42
0.0
 10
-3.4999897E+01
 20
1.5999689E+02
 70
0
  0
SEQEND
  5
45c
100
AcDbEntity
  0
POLYLINE
  5
45d
100
AcDbEntity
  8
199
100
AcDb2dPolyline
  6
CONTINUOUS
 62
3
 66
1
 40
2.0E-01
 41
2.0E-01
 70
0
  0
VERTEX
  5
45e
100
AcDbEntity
  8
199
100
AcDbVertex
100
AcDb2dVertex
 42
0.0
 10
-1.0099989E+02
 20
1.5199729E+02
 70
0
  0
VERTEX
  5
45f
100
AcDbEntity
  8
199
100
AcDbVertex
100
AcDb2dVertex
 42
0.0
 10
-1.0099989E+02
 20
1.5999689E+02
 70
0
  0
SEQEND
  5
460
100
AcDbEntity
  0
POLYLINE
  5
461
100
AcDbEntity
  8
199
100
AcDb2dPolyline
  6
CONTINUOUS
 62
3
 66
1
 40
2.0E-01
 41
2.0E-01
 70
0
  0
VERTEX
  5
462
100
AcDbEntity
  8
199
100
AcDbVertex
100
AcDb2dVertex
 42
0.0
 10
-6.7999896E+01
 20
1.5199729E+02
 70
0
  0
VERTEX
  5
463
100
AcDbEntity
  8
199
100
AcDbVertex
100
AcDb2dVertex
 42
0.0
 10
-6.7999896E+01
 20
1.5999689E+02
 70
0
  0
SEQEND
  5
464
100
AcDbEntity
  0
POLYLINE
  5
465
100
AcDbEntity
  8
199
100
AcDb2dPolyline
  6
CONTINUOUS
 62
3
 66
1
 40
2.0E-01
 41
2.0E-01
 70
0
  0
VERTEX
  5
466
100
AcDbEntity
  8
199
100
AcDbVertex
100
AcDb2dVertex
 42
0.0
 10
-3.4999897E+01
 20
1.5199729E+02
 70
0
  0
VERTEX
  5
467
100
AcDbEntity
  8
199
100
AcDbVertex
100
AcDb2dVertex
 42
0.0
 10
-3.4999897E+01
 20
1.5599709E+02
 70
0
  0
SEQEND
  5
468
100
AcDbEntity
  0
POLYLINE
  5
469
100
AcDbEntity
  8
199
100
AcDb2dPolyline
  6
CONTINUOUS
 62
3
 66
1
 40
2.0E-01
 41
2.0E-01
 70
0
  0
VERTEX
  5
46a
100
AcDbEntity
  8
199
100
AcDbVertex
100
AcDb2dVertex
 42
0.0
 10
-1.6799984E+02
 20
1.5199729E+02
 70
0
  0
VERTEX
  5
46b
100
AcDbEntity
  8
199
100
AcDbVertex
100
AcDb2dVertex
 42
0.0
 10
-1.6799984E+02
 20
1.5999689E+02
 70
0
  0
SEQEND
  5
46c
100
AcDbEntity
  0
POLYLINE
  5
46d
100
AcDbEntity
  8
199
100
AcDb2dPolyline
  6
CONTINUOUS
 62
3
 66
1
 40
2.0E-01
 41
2.0E-01
 70
0
  0
VERTEX
  5
46e
100
AcDbEntity
  8
199
100
AcDbVertex
100
AcDb2dVertex
 42
0.0
 10
-1.5600045E+02
 20
1.5199729E+02
 70
0
  0
VERTEX
  5
46f
100
AcDbEntity
  8
199
100
AcDbVertex
100
AcDb2dVertex
 42
0.0
 10
-1.5600045E+02
 20
1.5999689E+02
 70
0
  0
SEQEND
  5
470
100
AcDbEntity
  0
TEXT
  5
471
100
AcDbEntity
  8
199
100
AcDbText
  6
CONTINUOUS
 62
1
 10
-9.7741861E+01
 20
1.6276966E+02
 40
2.500293
  1
XX
100
AcDbText
  0
TEXT
  5
472
100
AcDbEntity
  8
199
100
AcDbText
  6
CONTINUOUS
 62
1
 10
-6.4736816E+01
 20
1.6276966E+02
 40
2.500293
  1
XX
100
AcDbText
  0
TEXT
  5
473
100
AcDbEntity
  8
199
100
AcDbText
  6
CONTINUOUS
 62
1
 10
-3.1732612E+01
 20
1.6276966E+02
 40
2.500293
  1
XX
100
AcDbText
  0
TEXT
  5
474
100
AcDbEntity
  8
199
100
AcDbText
  6
CONTINUOUS
 62
1
 10
-1.5274326E+02
 20
1.6276966E+02
 40
2.500293
  1
XX
100
AcDbText
  0
TEXT
  5
475
100
AcDbEntity
  8
199
100
AcDbText
  6
CONTINUOUS
 62
1
 10
-1.6474097E+02
 20
1.6276966E+02
 40
2.500293
  1
XX
100
AcDbText
  0
TEXT
  5
476
100
AcDbEntity
  8
199
100
AcDbText
  6
CONTINUOUS
 62
1
 10
-1.7673951E+02
 20
1.6276966E+02
 40
2.500293
  1
11
100
AcDbText
  0
POLYLINE
  5
477
100
AcDbEntity
  8
199
100
AcDb2dPolyline
  6
CONTINUOUS
 62
3
 66
1
 40
2.0E-01
 41
2.0E-01
 70
0
  0
VERTEX
  5
478
100
AcDbEntity
  8
199
100
AcDbVertex
100
AcDb2dVertex
 42
0.0
 10
-1.8000007E+02
 20
1.6799648E+02
 70
0
  0
VERTEX
  5
479
100
AcDbEntity
  8
199
100
AcDbVertex
100
AcDb2dVertex
 42
0.0
 10
0.0
 20
1.6799648E+02
 70
0
  0
SEQEND
  5
47a
100
AcDbEntity
  0
POLYLINE
  5
47b
100
AcDbEntity
  8
199
100
AcDb2dPolyline
  6
CONTINUOUS
 62
3
 66
1
 40
2.0E-01
 41
2.0E-01
 70
0
  0
VERTEX
  5
47c
100
AcDbEntity
  8
199
100
AcDbVertex
100
AcDb2dVertex
 42
0.0
 10
-3.4999897E+01
 20
1.6399668E+02
 70
0
  0
VERTEX
  5
47d
100
AcDbEntity
  8
199
100
AcDbVertex
100
AcDb2dVertex
 42
0.0
 10
-3.4999897E+01
 20
1.6799648E+02
 70
0
  0
SEQEND
  5
47e
100
AcDbEntity
  0
POLYLINE
  5
47f
100
AcDbEntity
  8
199
100
AcDb2dPolyline
  6
CONTINUOUS
 62
3
 66
1
 40
2.0E-01
 41
2.0E-01
 70
0
  0
VERTEX
  5
480
100
AcDbEntity
  8
199
100
AcDbVertex
100
AcDb2dVertex
 42
0.0
 10
-1.0099989E+02
 20
1.5999689E+02
 70
0
  0
VERTEX
  5
481
100
AcDbEntity
  8
199
100
AcDbVertex
100
AcDb2dVertex
 42
0.0
 10
-1.0099989E+02
 20
1.6799648E+02
 70
0
  0
SEQEND
  5
482
100
AcDbEntity
  0
POLYLINE
  5
483
100
AcDbEntity
  8
199
100
AcDb2dPolyline
  6
CONTINUOUS
 62
3
 66
1
 40
2.0E-01
 41
2.0E-01
 70
0
  0
VERTEX
  5
484
100
AcDbEntity
  8
199
100
AcDbVertex
100
AcDb2dVertex
 42
0.0
 10
-6.7999896E+01
 20
1.5999689E+02
 70
0
  0
VERTEX
  5
485
100
AcDbEntity
  8
199
100
AcDbVertex
100
AcDb2dVertex
 42
0.0
 10
-6.7999896E+01
 20
1.6799648E+02
 70
0
  0
SEQEND
  5
486
100
AcDbEntity
  0
POLYLINE
  5
487
100
AcDbEntity
  8
199
100
AcDb2dPolyline
  6
CONTINUOUS
 62
3
 66
1
 40
2.0E-01
 41
2.0E-01
 70
0
  0
VERTEX
  5
488
100
AcDbEntity
  8
199
100
AcDbVertex
100
AcDb2dVertex
 42
0.0
 10
-3.4999897E+01
 20
1.5999689E+02
 70
0
  0
VERTEX
  5
489
100
AcDbEntity
  8
199
100
AcDbVertex
100
AcDb2dVertex
 42
0.0
 10
-3.4999897E+01
 20
1.6399668E+02
 70
0
  0
SEQEND
  5
48a
100
AcDbEntity
  0
POLYLINE
  5
48b
100
AcDbEntity
  8
199
100
AcDb2dPolyline
  6
CONTINUOUS
 62
3
 66
1
 40
2.0E-01
 41
2.0E-01
 70
0
  0
VERTEX
  5
48c
100
AcDbEntity
  8
199
100
AcDbVertex
100
AcDb2dVertex
 42
0.0
 10
-1.6799984E+02
 20
1.5999689E+02
 70
0
  0
VERTEX
  5
48d
100
AcDbEntity
  8
199
100
AcDbVertex
100
AcDb2dVertex
 42
0.0
 10
-1.6799984E+02
 20
1.6799648E+02
 70
0
  0
SEQEND
  5
48e
100
AcDbEntity
  0
POLYLINE
  5
48f
100
AcDbEntity
  8
199
100
AcDb2dPolyline
  6
CONTINUOUS
 62
3
 66
1
 40
2.0E-01
 41
2.0E-01
 70
0
  0
VERTEX
  5
490
100
AcDbEntity
  8
199
100
AcDbVertex
100
AcDb2dVertex
 42
0.0
 10
-1.5600045E+02
 20
1.5999689E+02
 70
0
  0
VERTEX
  5
491
100
AcDbEntity
  8
199
100
AcDbVertex
100
AcDb2dVertex
 42
0.0
 10
-1.5600045E+02
 20
1.6799648E+02
 70
0
  0
SEQEND
  5
492
100
AcDbEntity
  0
TEXT
  5
493
100
AcDbEntity
  8
199
100
AcDbText
  6
CONTINUOUS
 62
1
 10
-9.7741861E+01
 20
1.7076925E+02
 40
2.500293
  1
XX
100
AcDbText
  0
TEXT
  5
494
100
AcDbEntity
  8
199
100
AcDbText
  6
CONTINUOUS
 62
1
 10
-6.4736816E+01
 20
1.7076925E+02
 40
2.500293
  1
XX
100
AcDbText
  0
TEXT
  5
495
100
AcDbEntity
  8
199
100
AcDbText
  6
CONTINUOUS
 62
1
 10
-3.1732612E+01
 20
1.7076925E+02
 40
2.500293
  1
XX
100
AcDbText
  0
TEXT
  5
496
100
AcDbEntity
  8
199
100
AcDbText
  6
CONTINUOUS
 62
1
 10
-1.5274326E+02
 20
1.7076925E+02
 40
2.500293
  1
XX
100
AcDbText
  0
TEXT
  5
497
100
AcDbEntity
  8
199
100
AcDbText
  6
CONTINUOUS
 62
1
 10
-1.6474097E+02
 20
1.7076925E+02
 40
2.500293
  1
XX
100
AcDbText
  0
TEXT
  5
498
100
AcDbEntity
  8
199
100
AcDbText
  6
CONTINUOUS
 62
1
 10
-1.7673951E+02
 20
1.7076925E+02
 40
2.500293
  1
12
100
AcDbText
  0
POLYLINE
  5
499
100
AcDbEntity
  8
199
100
AcDb2dPolyline
  6
CONTINUOUS
 62
3
 66
1
 40
2.0E-01
 41
2.0E-01
 70
0
  0
VERTEX
  5
49a
100
AcDbEntity
  8
199
100
AcDbVertex
100
AcDb2dVertex
 42
0.0
 10
-1.8000007E+02
 20
1.7599607E+02
 70
0
  0
VERTEX
  5
49b
100
AcDbEntity
  8
199
100
AcDbVertex
100
AcDb2dVertex
 42
0.0
 10
0.0
 20
1.7599607E+02
 70
0
  0
SEQEND
  5
49c
100
AcDbEntity
  0
POLYLINE
  5
49d
100
AcDbEntity
  8
199
100
AcDb2dPolyline
  6
CONTINUOUS
 62
3
 66
1
 40
2.0E-01
 41
2.0E-01
 70
0
  0
VERTEX
  5
49e
100
AcDbEntity
  8
199
100
AcDbVertex
100
AcDb2dVertex
 42
0.0
 10
-3.4999897E+01
 20
1.7199627E+02
 70
0
  0
VERTEX
  5
49f
100
AcDbEntity
  8
199
100
AcDbVertex
100
AcDb2dVertex
 42
0.0
 10
-3.4999897E+01
 20
1.7599607E+02
 70
0
  0
SEQEND
  5
4a0
100
AcDbEntity
  0
POLYLINE
  5
4a1
100
AcDbEntity
  8
199
100
AcDb2dPolyline
  6
CONTINUOUS
 62
3
 66
1
 40
2.0E-01
 41
2.0E-01
 70
0
  0
VERTEX
  5
4a2
100
AcDbEntity
  8
199
100
AcDbVertex
100
AcDb2dVertex
 42
0.0
 10
-1.0099989E+02
 20
1.6799648E+02
 70
0
  0
VERTEX
  5
4a3
100
AcDbEntity
  8
199
100
AcDbVertex
100
AcDb2dVertex
 42
0.0
 10
-1.0099989E+02
 20
1.7599607E+02
 70
0
  0
SEQEND
  5
4a4
100
AcDbEntity
  0
POLYLINE
  5
4a5
100
AcDbEntity
  8
199
100
AcDb2dPolyline
  6
CONTINUOUS
 62
3
 66
1
 40
2.0E-01
 41
2.0E-01
 70
0
  0
VERTEX
  5
4a6
100
AcDbEntity
  8
199
100
AcDbVertex
100
AcDb2dVertex
 42
0.0
 10
-6.7999896E+01
 20
1.6799648E+02
 70
0
  0
VERTEX
  5
4a7
100
AcDbEntity
  8
199
100
AcDbVertex
100
AcDb2dVertex
 42
0.0
 10
-6.7999896E+01
 20
1.7599607E+02
 70
0
  0
SEQEND
  5
4a8
100
AcDbEntity
  0
POLYLINE
  5
4a9
100
AcDbEntity
  8
199
100
AcDb2dPolyline
  6
CONTINUOUS
 62
3
 66
1
 40
2.0E-01
 41
2.0E-01
 70
0
  0
VERTEX
  5
4aa
100
AcDbEntity
  8
199
100
AcDbVertex
100
AcDb2dVertex
 42
0.0
 10
-3.4999897E+01
 20
1.6799648E+02
 70
0
  0
VERTEX
  5
4ab
100
AcDbEntity
  8
199
100
AcDbVertex
100
AcDb2dVertex
 42
0.0
 10
-3.4999897E+01
 20
1.7199627E+02
 70
0
  0
SEQEND
  5
4ac
100
AcDbEntity
  0
POLYLINE
  5
4ad
100
AcDbEntity
  8
199
100
AcDb2dPolyline
  6
CONTINUOUS
 62
3
 66
1
 40
2.0E-01
 41
2.0E-01
 70
0
  0
VERTEX
  5
4ae
100
AcDbEntity
  8
199
100
AcDbVertex
100
AcDb2dVertex
 42
0.0
 10
-1.6799984E+02
 20
1.6799648E+02
 70
0
  0
VERTEX
  5
4af
100
AcDbEntity
  8
199
100
AcDbVertex
100
AcDb2dVertex
 42
0.0
 10
-1.6799984E+02
 20
1.7599607E+02
 70
0
  0
SEQEND
  5
4b0
100
AcDbEntity
  0
POLYLINE
  5
4b1
100
AcDbEntity
  8
199
100
AcDb2dPolyline
  6
CONTINUOUS
 62
3
 66
1
 40
2.0E-01
 41
2.0E-01
 70
0
  0
VERTEX
  5
4b2
100
AcDbEntity
  8
199
100
AcDbVertex
100
AcDb2dVertex
 42
0.0
 10
-1.5600045E+02
 20
1.6799648E+02
 70
0
  0
VERTEX
  5
4b3
100
AcDbEntity
  8
199
100
AcDbVertex
100
AcDb2dVertex
 42
0.0
 10
-1.5600045E+02
 20
1.7599607E+02
 70
0
  0
SEQEND
  5
4b4
100
AcDbEntity
  0
TEXT
  5
4b5
100
AcDbEntity
  8
199
100
AcDbText
  6
CONTINUOUS
 62
1
 10
-9.7741861E+01
 20
1.7876885E+02
 40
2.500293
  1
XX
100
AcDbText
  0
TEXT
  5
4b6
100
AcDbEntity
  8
199
100
AcDbText
  6
CONTINUOUS
 62
1
 10
-6.4736816E+01
 20
1.7876885E+02
 40
2.500293
  1
XX
100
AcDbText
  0
TEXT
  5
4b7
100
AcDbEntity
  8
199
100
AcDbText
  6
CONTINUOUS
 62
1
 10
-3.1732612E+01
 20
1.7876885E+02
 40
2.500293
  1
XX
100
AcDbText
  0
TEXT
  5
4b8
100
AcDbEntity
  8
199
100
AcDbText
  6
CONTINUOUS
 62
1
 10
-1.5274326E+02
 20
1.7876885E+02
 40
2.500293
  1
XX
100
AcDbText
  0
TEXT
  5
4b9
100
AcDbEntity
  8
199
100
AcDbText
  6
CONTINUOUS
 62
1
 10
-1.6474097E+02
 20
1.7876885E+02
 40
2.500293
  1
XX
100
AcDbText
  0
TEXT
  5
4ba
100
AcDbEntity
  8
199
100
AcDbText
  6
CONTINUOUS
 62
1
 10
-1.7673951E+02
 20
1.7876885E+02
 40
2.500293
  1
13
100
AcDbText
  0
POLYLINE
  5
4bb
100
AcDbEntity
  8
199
100
AcDb2dPolyline
  6
CONTINUOUS
 62
3
 66
1
 40
2.0E-01
 41
2.0E-01
 70
0
  0
VERTEX
  5
4bc
100
AcDbEntity
  8
199
100
AcDbVertex
100
AcDb2dVertex
 42
0.0
 10
-1.8000007E+02
 20
1.8399566E+02
 70
0
  0
VERTEX
  5
4bd
100
AcDbEntity
  8
199
100
AcDbVertex
100
AcDb2dVertex
 42
0.0
 10
0.0
 20
1.8399566E+02
 70
0
  0
SEQEND
  5
4be
100
AcDbEntity
  0
POLYLINE
  5
4bf
100
AcDbEntity
  8
199
100
AcDb2dPolyline
  6
CONTINUOUS
 62
3
 66
1
 40
2.0E-01
 41
2.0E-01
 70
0
  0
VERTEX
  5
4c0
100
AcDbEntity
  8
199
100
AcDbVertex
100
AcDb2dVertex
 42
0.0
 10
-3.4999897E+01
 20
1.7999587E+02
 70
0
  0
VERTEX
  5
4c1
100
AcDbEntity
  8
199
100
AcDbVertex
100
AcDb2dVertex
 42
0.0
 10
-3.4999897E+01
 20
1.8399566E+02
 70
0
  0
SEQEND
  5
4c2
100
AcDbEntity
  0
POLYLINE
  5
4c3
100
AcDbEntity
  8
199
100
AcDb2dPolyline
  6
CONTINUOUS
 62
3
 66
1
 40
2.0E-01
 41
2.0E-01
 70
0
  0
VERTEX
  5
4c4
100
AcDbEntity
  8
199
100
AcDbVertex
100
AcDb2dVertex
 42
0.0
 10
-1.0099989E+02
 20
1.7599607E+02
 70
0
  0
VERTEX
  5
4c5
100
AcDbEntity
  8
199
100
AcDbVertex
100
AcDb2dVertex
 42
0.0
 10
-1.0099989E+02
 20
1.8399566E+02
 70
0
  0
SEQEND
  5
4c6
100
AcDbEntity
  0
POLYLINE
  5
4c7
100
AcDbEntity
  8
199
100
AcDb2dPolyline
  6
CONTINUOUS
 62
3
 66
1
 40
2.0E-01
 41
2.0E-01
 70
0
  0
VERTEX
  5
4c8
100
AcDbEntity
  8
199
100
AcDbVertex
100
AcDb2dVertex
 42
0.0
 10
-6.7999896E+01
 20
1.7599607E+02
 70
0
  0
VERTEX
  5
4c9
100
AcDbEntity
  8
199
100
AcDbVertex
100
AcDb2dVertex
 42
0.0
 10
-6.7999896E+01
 20
1.8399566E+02
 70
0
  0
SEQEND
  5
4ca
100
AcDbEntity
  0
POLYLINE
  5
4cb
100
AcDbEntity
  8
199
100
AcDb2dPolyline
  6
CONTINUOUS
 62
3
 66
1
 40
2.0E-01
 41
2.0E-01
 70
0
  0
VERTEX
  5
4cc
100
AcDbEntity
  8
199
100
AcDbVertex
100
AcDb2dVertex
 42
0.0
 10
-3.4999897E+01
 20
1.7599607E+02
 70
0
  0
VERTEX
  5
4cd
100
AcDbEntity
  8
199
100
AcDbVertex
100
AcDb2dVertex
 42
0.0
 10
-3.4999897E+01
 20
1.7999587E+02
 70
0
  0
SEQEND
  5
4ce
100
AcDbEntity
  0
POLYLINE
  5
4cf
100
AcDbEntity
  8
199
100
AcDb2dPolyline
  6
CONTINUOUS
 62
3
 66
1
 40
2.0E-01
 41
2.0E-01
 70
0
  0
VERTEX
  5
4d0
100
AcDbEntity
  8
199
100
AcDbVertex
100
AcDb2dVertex
 42
0.0
 10
-1.6799984E+02
 20
1.7599607E+02
 70
0
  0
VERTEX
  5
4d1
100
AcDbEntity
  8
199
100
AcDbVertex
100
AcDb2dVertex
 42
0.0
 10
-1.6799984E+02
 20
1.8399566E+02
 70
0
  0
SEQEND
  5
4d2
100
AcDbEntity
  0
POLYLINE
  5
4d3
100
AcDbEntity
  8
199
100
AcDb2dPolyline
  6
CONTINUOUS
 62
3
 66
1
 40
2.0E-01
 41
2.0E-01
 70
0
  0
VERTEX
  5
4d4
100
AcDbEntity
  8
199
100
AcDbVertex
100
AcDb2dVertex
 42
0.0
 10
-1.5600045E+02
 20
1.7599607E+02
 70
0
  0
VERTEX
  5
4d5
100
AcDbEntity
  8
199
100
AcDbVertex
100
AcDb2dVertex
 42
0.0
 10
-1.5600045E+02
 20
1.8399566E+02
 70
0
  0
SEQEND
  5
4d6
100
AcDbEntity
  0
TEXT
  5
4d7
100
AcDbEntity
  8
199
100
AcDbText
  6
CONTINUOUS
 62
1
 10
-9.7741861E+01
 20
1.8676844E+02
 40
2.500293
  1
XX
100
AcDbText
  0
TEXT
  5
4d8
100
AcDbEntity
  8
199
100
AcDbText
  6
CONTINUOUS
 62
1
 10
-6.4736816E+01
 20
1.8676844E+02
 40
2.500293
  1
XX
100
AcDbText
  0
TEXT
  5
4d9
100
AcDbEntity
  8
199
100
AcDbText
  6
CONTINUOUS
 62
1
 10
-3.1732612E+01
 20
1.8676844E+02
 40
2.500293
  1
XX
100
AcDbText
  0
TEXT
  5
4da
100
AcDbEntity
  8
199
100
AcDbText
  6
CONTINUOUS
 62
1
 10
-1.5274326E+02
 20
1.8676844E+02
 40
2.500293
  1
XX
100
AcDbText
  0
TEXT
  5
4db
100
AcDbEntity
  8
199
100
AcDbText
  6
CONTINUOUS
 62
1
 10
-1.6474097E+02
 20
1.8676844E+02
 40
2.500293
  1
XX
100
AcDbText
  0
TEXT
  5
4dc
100
AcDbEntity
  8
199
100
AcDbText
  6
CONTINUOUS
 62
1
 10
-1.7673951E+02
 20
1.8676844E+02
 40
2.500293
  1
14
100
AcDbText
  0
POLYLINE
  5
4dd
100
AcDbEntity
  8
199
100
AcDb2dPolyline
  6
CONTINUOUS
 62
3
 66
1
 40
2.0E-01
 41
2.0E-01
 70
0
  0
VERTEX
  5
4de
100
AcDbEntity
  8
199
100
AcDbVertex
100
AcDb2dVertex
 42
0.0
 10
-1.8000007E+02
 20
1.9199525E+02
 70
0
  0
VERTEX
  5
4df
100
AcDbEntity
  8
199
100
AcDbVertex
100
AcDb2dVertex
 42
0.0
 10
0.0
 20
1.9199525E+02
 70
0
  0
SEQEND
  5
4e0
100
AcDbEntity
  0
POLYLINE
  5
4e1
100
AcDbEntity
  8
199
100
AcDb2dPolyline
  6
CONTINUOUS
 62
3
 66
1
 40
2.0E-01
 41
2.0E-01
 70
0
  0
VERTEX
  5
4e2
100
AcDbEntity
  8
199
100
AcDbVertex
100
AcDb2dVertex
 42
0.0
 10
-3.4999897E+01
 20
1.8799546E+02
 70
0
  0
VERTEX
  5
4e3
100
AcDbEntity
  8
199
100
AcDbVertex
100
AcDb2dVertex
 42
0.0
 10
-3.4999897E+01
 20
1.9199525E+02
 70
0
  0
SEQEND
  5
4e4
100
AcDbEntity
  0
POLYLINE
  5
4e5
100
AcDbEntity
  8
199
100
AcDb2dPolyline
  6
CONTINUOUS
 62
3
 66
1
 40
2.0E-01
 41
2.0E-01
 70
0
  0
VERTEX
  5
4e6
100
AcDbEntity
  8
199
100
AcDbVertex
100
AcDb2dVertex
 42
0.0
 10
-1.0099989E+02
 20
1.8399566E+02
 70
0
  0
VERTEX
  5
4e7
100
AcDbEntity
  8
199
100
AcDbVertex
100
AcDb2dVertex
 42
0.0
 10
-1.0099989E+02
 20
1.9199525E+02
 70
0
  0
SEQEND
  5
4e8
100
AcDbEntity
  0
POLYLINE
  5
4e9
100
AcDbEntity
  8
199
100
AcDb2dPolyline
  6
CONTINUOUS
 62
3
 66
1
 40
2.0E-01
 41
2.0E-01
 70
0
  0
VERTEX
  5
4ea
100
AcDbEntity
  8
199
100
AcDbVertex
100
AcDb2dVertex
 42
0.0
 10
-6.7999896E+01
 20
1.8399566E+02
 70
0
  0
VERTEX
  5
4eb
100
AcDbEntity
  8
199
100
AcDbVertex
100
AcDb2dVertex
 42
0.0
 10
-6.7999896E+01
 20
1.9199525E+02
 70
0
  0
SEQEND
  5
4ec
100
AcDbEntity
  0
POLYLINE
  5
4ed
100
AcDbEntity
  8
199
100
AcDb2dPolyline
  6
CONTINUOUS
 62
3
 66
1
 40
2.0E-01
 41
2.0E-01
 70
0
  0
VERTEX
  5
4ee
100
AcDbEntity
  8
199
100
AcDbVertex
100
AcDb2dVertex
 42
0.0
 10
-3.4999897E+01
 20
1.8399566E+02
 70
0
  0
VERTEX
  5
4ef
100
AcDbEntity
  8
199
100
AcDbVertex
100
AcDb2dVertex
 42
0.0
 10
-3.4999897E+01
 20
1.8799546E+02
 70
0
  0
SEQEND
  5
4f0
100
AcDbEntity
  0
POLYLINE
  5
4f1
100
AcDbEntity
  8
199
100
AcDb2dPolyline
  6
CONTINUOUS
 62
3
 66
1
 40
2.0E-01
 41
2.0E-01
 70
0
  0
VERTEX
  5
4f2
100
AcDbEntity
  8
199
100
AcDbVertex
100
AcDb2dVertex
 42
0.0
 10
-1.6799984E+02
 20
1.8399566E+02
 70
0
  0
VERTEX
  5
4f3
100
AcDbEntity
  8
199
100
AcDbVertex
100
AcDb2dVertex
 42
0.0
 10
-1.6799984E+02
 20
1.9199525E+02
 70
0
  0
SEQEND
  5
4f4
100
AcDbEntity
  0
POLYLINE
  5
4f5
100
AcDbEntity
  8
199
100
AcDb2dPolyline
  6
CONTINUOUS
 62
3
 66
1
 40
2.0E-01
 41
2.0E-01
 70
0
  0
VERTEX
  5
4f6
100
AcDbEntity
  8
199
100
AcDbVertex
100
AcDb2dVertex
 42
0.0
 10
-1.5600045E+02
 20
1.8399566E+02
 70
0
  0
VERTEX
  5
4f7
100
AcDbEntity
  8
199
100
AcDbVertex
100
AcDb2dVertex
 42
0.0
 10
-1.5600045E+02
 20
1.9199525E+02
 70
0
  0
SEQEND
  5
4f8
100
AcDbEntity
  0
TEXT
  5
4f9
100
AcDbEntity
  8
199
100
AcDbText
  6
CONTINUOUS
 62
1
 10
-9.7741861E+01
 20
1.9476803E+02
 40
2.500293
  1
XX
100
AcDbText
  0
TEXT
  5
4fa
100
AcDbEntity
  8
199
100
AcDbText
  6
CONTINUOUS
 62
1
 10
-6.4736816E+01
 20
1.9476803E+02
 40
2.500293
  1
XX
100
AcDbText
  0
TEXT
  5
4fb
100
AcDbEntity
  8
199
100
AcDbText
  6
CONTINUOUS
 62
1
 10
-3.1732612E+01
 20
1.9476803E+02
 40
2.500293
  1
XX
100
AcDbText
  0
TEXT
  5
4fc
100
AcDbEntity
  8
199
100
AcDbText
  6
CONTINUOUS
 62
1
 10
-1.5274326E+02
 20
1.9476803E+02
 40
2.500293
  1
XX
100
AcDbText
  0
TEXT
  5
4fd
100
AcDbEntity
  8
199
100
AcDbText
  6
CONTINUOUS
 62
1
 10
-1.6474097E+02
 20
1.9476803E+02
 40
2.500293
  1
XX
100
AcDbText
  0
TEXT
  5
4fe
100
AcDbEntity
  8
199
100
AcDbText
  6
CONTINUOUS
 62
1
 10
-1.7673951E+02
 20
1.9476803E+02
 40
2.500293
  1
15
100
AcDbText
  0
POLYLINE
  5
4ff
100
AcDbEntity
  8
199
100
AcDb2dPolyline
  6
CONTINUOUS
 62
3
 66
1
 40
2.0E-01
 41
2.0E-01
 70
0
  0
VERTEX
  5
500
100
AcDbEntity
  8
199
100
AcDbVertex
100
AcDb2dVertex
 42
0.0
 10
-1.8000007E+02
 20
1.9999485E+02
 70
0
  0
VERTEX
  5
501
100
AcDbEntity
  8
199
100
AcDbVertex
100
AcDb2dVertex
 42
0.0
 10
0.0
 20
1.9999485E+02
 70
0
  0
SEQEND
  5
502
100
AcDbEntity
  0
POLYLINE
  5
503
100
AcDbEntity
  8
199
100
AcDb2dPolyline
  6
CONTINUOUS
 62
3
 66
1
 40
2.0E-01
 41
2.0E-01
 70
0
  0
VERTEX
  5
504
100
AcDbEntity
  8
199
100
AcDbVertex
100
AcDb2dVertex
 42
0.0
 10
-3.4999897E+01
 20
1.9599505E+02
 70
0
  0
VERTEX
  5
505
100
AcDbEntity
  8
199
100
AcDbVertex
100
AcDb2dVertex
 42
0.0
 10
-3.4999897E+01
 20
1.9999485E+02
 70
0
  0
SEQEND
  5
506
100
AcDbEntity
  0
POLYLINE
  5
507
100
AcDbEntity
  8
199
100
AcDb2dPolyline
  6
CONTINUOUS
 62
3
 66
1
 40
2.0E-01
 41
2.0E-01
 70
0
  0
VERTEX
  5
508
100
AcDbEntity
  8
199
100
AcDbVertex
100
AcDb2dVertex
 42
0.0
 10
-1.0099989E+02
 20
1.9199525E+02
 70
0
  0
VERTEX
  5
509
100
AcDbEntity
  8
199
100
AcDbVertex
100
AcDb2dVertex
 42
0.0
 10
-1.0099989E+02
 20
1.9999485E+02
 70
0
  0
SEQEND
  5
50a
100
AcDbEntity
  0
POLYLINE
  5
50b
100
AcDbEntity
  8
199
100
AcDb2dPolyline
  6
CONTINUOUS
 62
3
 66
1
 40
2.0E-01
 41
2.0E-01
 70
0
  0
VERTEX
  5
50c
100
AcDbEntity
  8
199
100
AcDbVertex
100
AcDb2dVertex
 42
0.0
 10
-6.7999896E+01
 20
1.9199525E+02
 70
0
  0
VERTEX
  5
50d
100
AcDbEntity
  8
199
100
AcDbVertex
100
AcDb2dVertex
 42
0.0
 10
-6.7999896E+01
 20
1.9999485E+02
 70
0
  0
SEQEND
  5
50e
100
AcDbEntity
  0
POLYLINE
  5
50f
100
AcDbEntity
  8
199
100
AcDb2dPolyline
  6
CONTINUOUS
 62
3
 66
1
 40
2.0E-01
 41
2.0E-01
 70
0
  0
VERTEX
  5
510
100
AcDbEntity
  8
199
100
AcDbVertex
100
AcDb2dVertex
 42
0.0
 10
-3.4999897E+01
 20
1.9199525E+02
 70
0
  0
VERTEX
  5
511
100
AcDbEntity
  8
199
100
AcDbVertex
100
AcDb2dVertex
 42
0.0
 10
-3.4999897E+01
 20
1.9599505E+02
 70
0
  0
SEQEND
  5
512
100
AcDbEntity
  0
POLYLINE
  5
513
100
AcDbEntity
  8
199
100
AcDb2dPolyline
  6
CONTINUOUS
 62
3
 66
1
 40
2.0E-01
 41
2.0E-01
 70
0
  0
VERTEX
  5
514
100
AcDbEntity
  8
199
100
AcDbVertex
100
AcDb2dVertex
 42
0.0
 10
-1.6799984E+02
 20
1.9199525E+02
 70
0
  0
VERTEX
  5
515
100
AcDbEntity
  8
199
100
AcDbVertex
100
AcDb2dVertex
 42
0.0
 10
-1.6799984E+02
 20
1.9999485E+02
 70
0
  0
SEQEND
  5
516
100
AcDbEntity
  0
POLYLINE
  5
517
100
AcDbEntity
  8
199
100
AcDb2dPolyline
  6
CONTINUOUS
 62
3
 66
1
 40
2.0E-01
 41
2.0E-01
 70
0
  0
VERTEX
  5
518
100
AcDbEntity
  8
199
100
AcDbVertex
100
AcDb2dVertex
 42
0.0
 10
-1.5600045E+02
 20
1.9199525E+02
 70
0
  0
VERTEX
  5
519
100
AcDbEntity
  8
199
100
AcDbVertex
100
AcDb2dVertex
 42
0.0
 10
-1.5600045E+02
 20
1.9999485E+02
 70
0
  0
SEQEND
  5
51a
100
AcDbEntity
  0
TEXT
  5
51b
100
AcDbEntity
  8
199
100
AcDbText
  6
CONTINUOUS
 62
1
 10
-9.7741861E+01
 20
2.0276762E+02
 40
2.500293
  1
XX
100
AcDbText
  0
TEXT
  5
51c
100
AcDbEntity
  8
199
100
AcDbText
  6
CONTINUOUS
 62
1
 10
-6.4736816E+01
 20
2.0276762E+02
 40
2.500293
  1
XX
100
AcDbText
  0
TEXT
  5
51d
100
AcDbEntity
  8
199
100
AcDbText
  6
CONTINUOUS
 62
1
 10
-3.1732612E+01
 20
2.0276762E+02
 40
2.500293
  1
XX
100
AcDbText
  0
TEXT
  5
51e
100
AcDbEntity
  8
199
100
AcDbText
  6
CONTINUOUS
 62
1
 10
-1.5274326E+02
 20
2.0276762E+02
 40
2.500293
  1
XX
100
AcDbText
  0
TEXT
  5
51f
100
AcDbEntity
  8
199
100
AcDbText
  6
CONTINUOUS
 62
1
 10
-1.6474097E+02
 20
2.0276762E+02
 40
2.500293
  1
XX
100
AcDbText
  0
TEXT
  5
520
100
AcDbEntity
  8
199
100
AcDbText
  6
CONTINUOUS
 62
1
 10
-1.7673951E+02
 20
2.0276762E+02
 40
2.500293
  1
16
100
AcDbText
  0
POLYLINE
  5
521
100
AcDbEntity
  8
199
100
AcDb2dPolyline
  6
CONTINUOUS
 62
3
 66
1
 40
2.0E-01
 41
2.0E-01
 70
0
  0
VERTEX
  5
522
100
AcDbEntity
  8
199
100
AcDbVertex
100
AcDb2dVertex
 42
0.0
 10
-1.8000007E+02
 20
2.0799444E+02
 70
0
  0
VERTEX
  5
523
100
AcDbEntity
  8
199
100
AcDbVertex
100
AcDb2dVertex
 42
0.0
 10
0.0
 20
2.0799444E+02
 70
0
  0
SEQEND
  5
524
100
AcDbEntity
  0
POLYLINE
  5
525
100
AcDbEntity
  8
199
100
AcDb2dPolyline
  6
CONTINUOUS
 62
3
 66
1
 40
2.0E-01
 41
2.0E-01
 70
0
  0
VERTEX
  5
526
100
AcDbEntity
  8
199
100
AcDbVertex
100
AcDb2dVertex
 42
0.0
 10
-3.4999897E+01
 20
2.0399464E+02
 70
0
  0
VERTEX
  5
527
100
AcDbEntity
  8
199
100
AcDbVertex
100
AcDb2dVertex
 42
0.0
 10
-3.4999897E+01
 20
2.0799444E+02
 70
0
  0
SEQEND
  5
528
100
AcDbEntity
  0
POLYLINE
  5
529
100
AcDbEntity
  8
199
100
AcDb2dPolyline
  6
CONTINUOUS
 62
3
 66
1
 40
2.0E-01
 41
2.0E-01
 70
0
  0
VERTEX
  5
52a
100
AcDbEntity
  8
199
100
AcDbVertex
100
AcDb2dVertex
 42
0.0
 10
-1.0099989E+02
 20
1.9999485E+02
 70
0
  0
VERTEX
  5
52b
100
AcDbEntity
  8
199
100
AcDbVertex
100
AcDb2dVertex
 42
0.0
 10
-1.0099989E+02
 20
2.0799444E+02
 70
0
  0
SEQEND
  5
52c
100
AcDbEntity
  0
POLYLINE
  5
52d
100
AcDbEntity
  8
199
100
AcDb2dPolyline
  6
CONTINUOUS
 62
3
 66
1
 40
2.0E-01
 41
2.0E-01
 70
0
  0
VERTEX
  5
52e
100
AcDbEntity
  8
199
100
AcDbVertex
100
AcDb2dVertex
 42
0.0
 10
-6.7999896E+01
 20
1.9999485E+02
 70
0
  0
VERTEX
  5
52f
100
AcDbEntity
  8
199
100
AcDbVertex
100
AcDb2dVertex
 42
0.0
 10
-6.7999896E+01
 20
2.0799444E+02
 70
0
  0
SEQEND
  5
530
100
AcDbEntity
  0
POLYLINE
  5
531
100
AcDbEntity
  8
199
100
AcDb2dPolyline
  6
CONTINUOUS
 62
3
 66
1
 40
2.0E-01
 41
2.0E-01
 70
0
  0
VERTEX
  5
532
100
AcDbEntity
  8
199
100
AcDbVertex
100
AcDb2dVertex
 42
0.0
 10
-3.4999897E+01
 20
1.9999485E+02
 70
0
  0
VERTEX
  5
533
100
AcDbEntity
  8
199
100
AcDbVertex
100
AcDb2dVertex
 42
0.0
 10
-3.4999897E+01
 20
2.0399464E+02
 70
0
  0
SEQEND
  5
534
100
AcDbEntity
  0
POLYLINE
  5
535
100
AcDbEntity
  8
199
100
AcDb2dPolyline
  6
CONTINUOUS
 62
3
 66
1
 40
2.0E-01
 41
2.0E-01
 70
0
  0
VERTEX
  5
536
100
AcDbEntity
  8
199
100
AcDbVertex
100
AcDb2dVertex
 42
0.0
 10
-1.6799984E+02
 20
1.9999485E+02
 70
0
  0
VERTEX
  5
537
100
AcDbEntity
  8
199
100
AcDbVertex
100
AcDb2dVertex
 42
0.0
 10
-1.6799984E+02
 20
2.0799444E+02
 70
0
  0
SEQEND
  5
538
100
AcDbEntity
  0
POLYLINE
  5
539
100
AcDbEntity
  8
199
100
AcDb2dPolyline
  6
CONTINUOUS
 62
3
 66
1
 40
2.0E-01
 41
2.0E-01
 70
0
  0
VERTEX
  5
53a
100
AcDbEntity
  8
199
100
AcDbVertex
100
AcDb2dVertex
 42
0.0
 10
-1.5600045E+02
 20
1.9999485E+02
 70
0
  0
VERTEX
  5
53b
100
AcDbEntity
  8
199
100
AcDbVertex
100
AcDb2dVertex
 42
0.0
 10
-1.5600045E+02
 20
2.0799444E+02
 70
0
  0
SEQEND
  5
53c
100
AcDbEntity
  0
TEXT
  5
53d
100
AcDbEntity
  8
199
100
AcDbText
  6
CONTINUOUS
 62
1
 10
-9.7741861E+01
 20
2.1076721E+02
 40
2.500293
  1
XX
100
AcDbText
  0
TEXT
  5
53e
100
AcDbEntity
  8
199
100
AcDbText
  6
CONTINUOUS
 62
1
 10
-6.4736816E+01
 20
2.1076721E+02
 40
2.500293
  1
XX
100
AcDbText
  0
TEXT
  5
53f
100
AcDbEntity
  8
199
100
AcDbText
  6
CONTINUOUS
 62
1
 10
-3.1732612E+01
 20
2.1076721E+02
 40
2.500293
  1
XX
100
AcDbText
  0
TEXT
  5
540
100
AcDbEntity
  8
199
100
AcDbText
  6
CONTINUOUS
 62
1
 10
-1.5274326E+02
 20
2.1076721E+02
 40
2.500293
  1
XX
100
AcDbText
  0
TEXT
  5
541
100
AcDbEntity
  8
199
100
AcDbText
  6
CONTINUOUS
 62
1
 10
-1.6474097E+02
 20
2.1076721E+02
 40
2.500293
  1
XX
100
AcDbText
  0
TEXT
  5
542
100
AcDbEntity
  8
199
100
AcDbText
  6
CONTINUOUS
 62
1
 10
-1.7673951E+02
 20
2.1076721E+02
 40
2.500293
  1
17
100
AcDbText
  0
POLYLINE
  5
543
100
AcDbEntity
  8
199
100
AcDb2dPolyline
  6
CONTINUOUS
 62
3
 66
1
 40
2.0E-01
 41
2.0E-01
 70
0
  0
VERTEX
  5
544
100
AcDbEntity
  8
199
100
AcDbVertex
100
AcDb2dVertex
 42
0.0
 10
-1.8000007E+02
 20
2.1599403E+02
 70
0
  0
VERTEX
  5
545
100
AcDbEntity
  8
199
100
AcDbVertex
100
AcDb2dVertex
 42
0.0
 10
0.0
 20
2.1599403E+02
 70
0
  0
SEQEND
  5
546
100
AcDbEntity
  0
POLYLINE
  5
547
100
AcDbEntity
  8
199
100
AcDb2dPolyline
  6
CONTINUOUS
 62
3
 66
1
 40
2.0E-01
 41
2.0E-01
 70
0
  0
VERTEX
  5
548
100
AcDbEntity
  8
199
100
AcDbVertex
100
AcDb2dVertex
 42
0.0
 10
-3.4999897E+01
 20
2.1199423E+02
 70
0
  0
VERTEX
  5
549
100
AcDbEntity
  8
199
100
AcDbVertex
100
AcDb2dVertex
 42
0.0
 10
-3.4999897E+01
 20
2.1599403E+02
 70
0
  0
SEQEND
  5
54a
100
AcDbEntity
  0
POLYLINE
  5
54b
100
AcDbEntity
  8
199
100
AcDb2dPolyline
  6
CONTINUOUS
 62
3
 66
1
 40
2.0E-01
 41
2.0E-01
 70
0
  0
VERTEX
  5
54c
100
AcDbEntity
  8
199
100
AcDbVertex
100
AcDb2dVertex
 42
0.0
 10
-1.0099989E+02
 20
2.0799444E+02
 70
0
  0
VERTEX
  5
54d
100
AcDbEntity
  8
199
100
AcDbVertex
100
AcDb2dVertex
 42
0.0
 10
-1.0099989E+02
 20
2.1599403E+02
 70
0
  0
SEQEND
  5
54e
100
AcDbEntity
  0
POLYLINE
  5
54f
100
AcDbEntity
  8
199
100
AcDb2dPolyline
  6
CONTINUOUS
 62
3
 66
1
 40
2.0E-01
 41
2.0E-01
 70
0
  0
VERTEX
  5
550
100
AcDbEntity
  8
199
100
AcDbVertex
100
AcDb2dVertex
 42
0.0
 10
-6.7999896E+01
 20
2.0799444E+02
 70
0
  0
VERTEX
  5
551
100
AcDbEntity
  8
199
100
AcDbVertex
100
AcDb2dVertex
 42
0.0
 10
-6.7999896E+01
 20
2.1599403E+02
 70
0
  0
SEQEND
  5
552
100
AcDbEntity
  0
POLYLINE
  5
553
100
AcDbEntity
  8
199
100
AcDb2dPolyline
  6
CONTINUOUS
 62
3
 66
1
 40
2.0E-01
 41
2.0E-01
 70
0
  0
VERTEX
  5
554
100
AcDbEntity
  8
199
100
AcDbVertex
100
AcDb2dVertex
 42
0.0
 10
-3.4999897E+01
 20
2.0799444E+02
 70
0
  0
VERTEX
  5
555
100
AcDbEntity
  8
199
100
AcDbVertex
100
AcDb2dVertex
 42
0.0
 10
-3.4999897E+01
 20
2.1199423E+02
 70
0
  0
SEQEND
  5
556
100
AcDbEntity
  0
POLYLINE
  5
557
100
AcDbEntity
  8
199
100
AcDb2dPolyline
  6
CONTINUOUS
 62
3
 66
1
 40
2.0E-01
 41
2.0E-01
 70
0
  0
VERTEX
  5
558
100
AcDbEntity
  8
199
100
AcDbVertex
100
AcDb2dVertex
 42
0.0
 10
-1.6799984E+02
 20
2.0799444E+02
 70
0
  0
VERTEX
  5
559
100
AcDbEntity
  8
199
100
AcDbVertex
100
AcDb2dVertex
 42
0.0
 10
-1.6799984E+02
 20
2.1599403E+02
 70
0
  0
SEQEND
  5
55a
100
AcDbEntity
  0
POLYLINE
  5
55b
100
AcDbEntity
  8
199
100
AcDb2dPolyline
  6
CONTINUOUS
 62
3
 66
1
 40
2.0E-01
 41
2.0E-01
 70
0
  0
VERTEX
  5
55c
100
AcDbEntity
  8
199
100
AcDbVertex
100
AcDb2dVertex
 42
0.0
 10
-1.5600045E+02
 20
2.0799444E+02
 70
0
  0
VERTEX
  5
55d
100
AcDbEntity
  8
199
100
AcDbVertex
100
AcDb2dVertex
 42
0.0
 10
-1.5600045E+02
 20
2.1599403E+02
 70
0
  0
SEQEND
  5
55e
100
AcDbEntity
  0
TEXT
  5
55f
100
AcDbEntity
  8
199
100
AcDbText
  6
CONTINUOUS
 62
1
 10
-9.7741861E+01
 20
2.1876681E+02
 40
2.500293
  1
XX
100
AcDbText
  0
TEXT
  5
560
100
AcDbEntity
  8
199
100
AcDbText
  6
CONTINUOUS
 62
1
 10
-6.4736816E+01
 20
2.1876681E+02
 40
2.500293
  1
XX
100
AcDbText
  0
TEXT
  5
561
100
AcDbEntity
  8
199
100
AcDbText
  6
CONTINUOUS
 62
1
 10
-3.1732612E+01
 20
2.1876681E+02
 40
2.500293
  1
XX
100
AcDbText
  0
TEXT
  5
562
100
AcDbEntity
  8
199
100
AcDbText
  6
CONTINUOUS
 62
1
 10
-1.5274326E+02
 20
2.1876681E+02
 40
2.500293
  1
XX
100
AcDbText
  0
TEXT
  5
563
100
AcDbEntity
  8
199
100
AcDbText
  6
CONTINUOUS
 62
1
 10
-1.6474097E+02
 20
2.1876681E+02
 40
2.500293
  1
XX
100
AcDbText
  0
TEXT
  5
564
100
AcDbEntity
  8
199
100
AcDbText
  6
CONTINUOUS
 62
1
 10
-1.7673951E+02
 20
2.1876681E+02
 40
2.500293
  1
18
100
AcDbText
  0
POLYLINE
  5
565
100
AcDbEntity
  8
199
100
AcDb2dPolyline
  6
CONTINUOUS
 62
3
 66
1
 40
2.0E-01
 41
2.0E-01
 70
0
  0
VERTEX
  5
566
100
AcDbEntity
  8
199
100
AcDbVertex
100
AcDb2dVertex
 42
0.0
 10
-1.8000007E+02
 20
2.2399362E+02
 70
0
  0
VERTEX
  5
567
100
AcDbEntity
  8
199
100
AcDbVertex
100
AcDb2dVertex
 42
0.0
 10
0.0
 20
2.2399362E+02
 70
0
  0
SEQEND
  5
568
100
AcDbEntity
  0
POLYLINE
  5
569
100
AcDbEntity
  8
199
100
AcDb2dPolyline
  6
CONTINUOUS
 62
3
 66
1
 40
2.0E-01
 41
2.0E-01
 70
0
  0
VERTEX
  5
56a
100
AcDbEntity
  8
199
100
AcDbVertex
100
AcDb2dVertex
 42
0.0
 10
-3.4999897E+01
 20
2.1999383E+02
 70
0
  0
VERTEX
  5
56b
100
AcDbEntity
  8
199
100
AcDbVertex
100
AcDb2dVertex
 42
0.0
 10
-3.4999897E+01
 20
2.2399362E+02
 70
0
  0
SEQEND
  5
56c
100
AcDbEntity
  0
POLYLINE
  5
56d
100
AcDbEntity
  8
199
100
AcDb2dPolyline
  6
CONTINUOUS
 62
3
 66
1
 40
2.0E-01
 41
2.0E-01
 70
0
  0
VERTEX
  5
56e
100
AcDbEntity
  8
199
100
AcDbVertex
100
AcDb2dVertex
 42
0.0
 10
-1.0099989E+02
 20
2.1599403E+02
 70
0
  0
VERTEX
  5
56f
100
AcDbEntity
  8
199
100
AcDbVertex
100
AcDb2dVertex
 42
0.0
 10
-1.0099989E+02
 20
2.2399362E+02
 70
0
  0
SEQEND
  5
570
100
AcDbEntity
  0
POLYLINE
  5
571
100
AcDbEntity
  8
199
100
AcDb2dPolyline
  6
CONTINUOUS
 62
3
 66
1
 40
2.0E-01
 41
2.0E-01
 70
0
  0
VERTEX
  5
572
100
AcDbEntity
  8
199
100
AcDbVertex
100
AcDb2dVertex
 42
0.0
 10
-6.7999896E+01
 20
2.1599403E+02
 70
0
  0
VERTEX
  5
573
100
AcDbEntity
  8
199
100
AcDbVertex
100
AcDb2dVertex
 42
0.0
 10
-6.7999896E+01
 20
2.2399362E+02
 70
0
  0
SEQEND
  5
574
100
AcDbEntity
  0
POLYLINE
  5
575
100
AcDbEntity
  8
199
100
AcDb2dPolyline
  6
CONTINUOUS
 62
3
 66
1
 40
2.0E-01
 41
2.0E-01
 70
0
  0
VERTEX
  5
576
100
AcDbEntity
  8
199
100
AcDbVertex
100
AcDb2dVertex
 42
0.0
 10
-3.4999897E+01
 20
2.1599403E+02
 70
0
  0
VERTEX
  5
577
100
AcDbEntity
  8
199
100
AcDbVertex
100
AcDb2dVertex
 42
0.0
 10
-3.4999897E+01
 20
2.1999383E+02
 70
0
  0
SEQEND
  5
578
100
AcDbEntity
  0
POLYLINE
  5
579
100
AcDbEntity
  8
199
100
AcDb2dPolyline
  6
CONTINUOUS
 62
3
 66
1
 40
2.0E-01
 41
2.0E-01
 70
0
  0
VERTEX
  5
57a
100
AcDbEntity
  8
199
100
AcDbVertex
100
AcDb2dVertex
 42
0.0
 10
-1.6799984E+02
 20
2.1599403E+02
 70
0
  0
VERTEX
  5
57b
100
AcDbEntity
  8
199
100
AcDbVertex
100
AcDb2dVertex
 42
0.0
 10
-1.6799984E+02
 20
2.2399362E+02
 70
0
  0
SEQEND
  5
57c
100
AcDbEntity
  0
POLYLINE
  5
57d
100
AcDbEntity
  8
199
100
AcDb2dPolyline
  6
CONTINUOUS
 62
3
 66
1
 40
2.0E-01
 41
2.0E-01
 70
0
  0
VERTEX
  5
57e
100
AcDbEntity
  8
199
100
AcDbVertex
100
AcDb2dVertex
 42
0.0
 10
-1.5600045E+02
 20
2.1599403E+02
 70
0
  0
VERTEX
  5
57f
100
AcDbEntity
  8
199
100
AcDbVertex
100
AcDb2dVertex
 42
0.0
 10
-1.5600045E+02
 20
2.2399362E+02
 70
0
  0
SEQEND
  5
580
100
AcDbEntity
  0
TEXT
  5
581
100
AcDbEntity
  8
199
100
AcDbText
  6
CONTINUOUS
 62
1
 10
-9.7741861E+01
 20
2.267664E+02
 40
2.500293
  1
XX
100
AcDbText
  0
TEXT
  5
582
100
AcDbEntity
  8
199
100
AcDbText
  6
CONTINUOUS
 62
1
 10
-6.4736816E+01
 20
2.267664E+02
 40
2.500293
  1
XX
100
AcDbText
  0
TEXT
  5
583
100
AcDbEntity
  8
199
100
AcDbText
  6
CONTINUOUS
 62
1
 10
-3.1732612E+01
 20
2.267664E+02
 40
2.500293
  1
XX
100
AcDbText
  0
TEXT
  5
584
100
AcDbEntity
  8
199
100
AcDbText
  6
CONTINUOUS
 62
1
 10
-1.5274326E+02
 20
2.267664E+02
 40
2.500293
  1
XX
100
AcDbText
  0
TEXT
  5
585
100
AcDbEntity
  8
199
100
AcDbText
  6
CONTINUOUS
 62
1
 10
-1.6474097E+02
 20
2.267664E+02
 40
2.500293
  1
XX
100
AcDbText
  0
TEXT
  5
586
100
AcDbEntity
  8
199
100
AcDbText
  6
CONTINUOUS
 62
1
 10
-1.7673951E+02
 20
2.267664E+02
 40
2.500293
  1
19
100
AcDbText
  0
POLYLINE
  5
587
100
AcDbEntity
  8
199
100
AcDb2dPolyline
  6
CONTINUOUS
 62
3
 66
1
 40
2.0E-01
 41
2.0E-01
 70
0
  0
VERTEX
  5
588
100
AcDbEntity
  8
199
100
AcDbVertex
100
AcDb2dVertex
 42
0.0
 10
-1.8000007E+02
 20
2.3199321E+02
 70
0
  0
VERTEX
  5
589
100
AcDbEntity
  8
199
100
AcDbVertex
100
AcDb2dVertex
 42
0.0
 10
0.0
 20
2.3199321E+02
 70
0
  0
SEQEND
  5
58a
100
AcDbEntity
  0
POLYLINE
  5
58b
100
AcDbEntity
  8
199
100
AcDb2dPolyline
  6
CONTINUOUS
 62
3
 66
1
 40
2.0E-01
 41
2.0E-01
 70
0
  0
VERTEX
  5
58c
100
AcDbEntity
  8
199
100
AcDbVertex
100
AcDb2dVertex
 42
0.0
 10
-3.4999897E+01
 20
2.2799342E+02
 70
0
  0
VERTEX
  5
58d
100
AcDbEntity
  8
199
100
AcDbVertex
100
AcDb2dVertex
 42
0.0
 10
-3.4999897E+01
 20
2.3199321E+02
 70
0
  0
SEQEND
  5
58e
100
AcDbEntity
  0
POLYLINE
  5
58f
100
AcDbEntity
  8
199
100
AcDb2dPolyline
  6
CONTINUOUS
 62
3
 66
1
 40
2.0E-01
 41
2.0E-01
 70
0
  0
VERTEX
  5
590
100
AcDbEntity
  8
199
100
AcDbVertex
100
AcDb2dVertex
 42
0.0
 10
-1.0099989E+02
 20
2.2399362E+02
 70
0
  0
VERTEX
  5
591
100
AcDbEntity
  8
199
100
AcDbVertex
100
AcDb2dVertex
 42
0.0
 10
-1.0099989E+02
 20
2.3199321E+02
 70
0
  0
SEQEND
  5
592
100
AcDbEntity
  0
POLYLINE
  5
593
100
AcDbEntity
  8
199
100
AcDb2dPolyline
  6
CONTINUOUS
 62
3
 66
1
 40
2.0E-01
 41
2.0E-01
 70
0
  0
VERTEX
  5
594
100
AcDbEntity
  8
199
100
AcDbVertex
100
AcDb2dVertex
 42
0.0
 10
-6.7999896E+01
 20
2.2399362E+02
 70
0
  0
VERTEX
  5
595
100
AcDbEntity
  8
199
100
AcDbVertex
100
AcDb2dVertex
 42
0.0
 10
-6.7999896E+01
 20
2.3199321E+02
 70
0
  0
SEQEND
  5
596
100
AcDbEntity
  0
POLYLINE
  5
597
100
AcDbEntity
  8
199
100
AcDb2dPolyline
  6
CONTINUOUS
 62
3
 66
1
 40
2.0E-01
 41
2.0E-01
 70
0
  0
VERTEX
  5
598
100
AcDbEntity
  8
199
100
AcDbVertex
100
AcDb2dVertex
 42
0.0
 10
-3.4999897E+01
 20
2.2399362E+02
 70
0
  0
VERTEX
  5
599
100
AcDbEntity
  8
199
100
AcDbVertex
100
AcDb2dVertex
 42
0.0
 10
-3.4999897E+01
 20
2.2799342E+02
 70
0
  0
SEQEND
  5
59a
100
AcDbEntity
  0
POLYLINE
  5
59b
100
AcDbEntity
  8
199
100
AcDb2dPolyline
  6
CONTINUOUS
 62
3
 66
1
 40
2.0E-01
 41
2.0E-01
 70
0
  0
VERTEX
  5
59c
100
AcDbEntity
  8
199
100
AcDbVertex
100
AcDb2dVertex
 42
0.0
 10
-1.6799984E+02
 20
2.2399362E+02
 70
0
  0
VERTEX
  5
59d
100
AcDbEntity
  8
199
100
AcDbVertex
100
AcDb2dVertex
 42
0.0
 10
-1.6799984E+02
 20
2.3199321E+02
 70
0
  0
SEQEND
  5
59e
100
AcDbEntity
  0
POLYLINE
  5
59f
100
AcDbEntity
  8
199
100
AcDb2dPolyline
  6
CONTINUOUS
 62
3
 66
1
 40
2.0E-01
 41
2.0E-01
 70
0
  0
VERTEX
  5
5a0
100
AcDbEntity
  8
199
100
AcDbVertex
100
AcDb2dVertex
 42
0.0
 10
-1.5600045E+02
 20
2.2399362E+02
 70
0
  0
VERTEX
  5
5a1
100
AcDbEntity
  8
199
100
AcDbVertex
100
AcDb2dVertex
 42
0.0
 10
-1.5600045E+02
 20
2.3199321E+02
 70
0
  0
SEQEND
  5
5a2
100
AcDbEntity
  0
TEXT
  5
5a3
100
AcDbEntity
  8
199
100
AcDbText
  6
CONTINUOUS
 62
1
 10
-9.7741861E+01
 20
2.3476599E+02
 40
2.500293
  1
XX
100
AcDbText
  0
TEXT
  5
5a4
100
AcDbEntity
  8
199
100
AcDbText
  6
CONTINUOUS
 62
1
 10
-6.4736816E+01
 20
2.3476599E+02
 40
2.500293
  1
XX
100
AcDbText
  0
TEXT
  5
5a5
100
AcDbEntity
  8
199
100
AcDbText
  6
CONTINUOUS
 62
1
 10
-3.1732612E+01
 20
2.3476599E+02
 40
2.500293
  1
XX
100
AcDbText
  0
TEXT
  5
5a6
100
AcDbEntity
  8
199
100
AcDbText
  6
CONTINUOUS
 62
1
 10
-1.5274326E+02
 20
2.3476599E+02
 40
2.500293
  1
XX
100
AcDbText
  0
TEXT
  5
5a7
100
AcDbEntity
  8
199
100
AcDbText
  6
CONTINUOUS
 62
1
 10
-1.6474097E+02
 20
2.3476599E+02
 40
2.500293
  1
XX
100
AcDbText
  0
TEXT
  5
5a8
100
AcDbEntity
  8
199
100
AcDbText
  6
CONTINUOUS
 62
1
 10
-1.7673951E+02
 20
2.3476599E+02
 40
2.500293
  1
20
100
AcDbText
  0
POLYLINE
  5
5a9
100
AcDbEntity
  8
199
100
AcDb2dPolyline
  6
CONTINUOUS
 62
3
 66
1
 40
2.0E-01
 41
2.0E-01
 70
0
  0
VERTEX
  5
5aa
100
AcDbEntity
  8
199
100
AcDbVertex
100
AcDb2dVertex
 42
0.0
 10
-1.8000007E+02
 20
2.3999281E+02
 70
0
  0
VERTEX
  5
5ab
100
AcDbEntity
  8
199
100
AcDbVertex
100
AcDb2dVertex
 42
0.0
 10
0.0
 20
2.3999281E+02
 70
0
  0
SEQEND
  5
5ac
100
AcDbEntity
  0
POLYLINE
  5
5ad
100
AcDbEntity
  8
199
100
AcDb2dPolyline
  6
CONTINUOUS
 62
3
 66
1
 40
2.0E-01
 41
2.0E-01
 70
0
  0
VERTEX
  5
5ae
100
AcDbEntity
  8
199
100
AcDbVertex
100
AcDb2dVertex
 42
0.0
 10
-3.4999897E+01
 20
2.3599301E+02
 70
0
  0
VERTEX
  5
5af
100
AcDbEntity
  8
199
100
AcDbVertex
100
AcDb2dVertex
 42
0.0
 10
-3.4999897E+01
 20
2.3999281E+02
 70
0
  0
SEQEND
  5
5b0
100
AcDbEntity
  0
POLYLINE
  5
5b1
100
AcDbEntity
  8
199
100
AcDb2dPolyline
  6
CONTINUOUS
 62
3
 66
1
 40
2.0E-01
 41
2.0E-01
 70
0
  0
VERTEX
  5
5b2
100
AcDbEntity
  8
199
100
AcDbVertex
100
AcDb2dVertex
 42
0.0
 10
-1.0099989E+02
 20
2.3199321E+02
 70
0
  0
VERTEX
  5
5b3
100
AcDbEntity
  8
199
100
AcDbVertex
100
AcDb2dVertex
 42
0.0
 10
-1.0099989E+02
 20
2.3999281E+02
 70
0
  0
SEQEND
  5
5b4
100
AcDbEntity
  0
POLYLINE
  5
5b5
100
AcDbEntity
  8
199
100
AcDb2dPolyline
  6
CONTINUOUS
 62
3
 66
1
 40
2.0E-01
 41
2.0E-01
 70
0
  0
VERTEX
  5
5b6
100
AcDbEntity
  8
199
100
AcDbVertex
100
AcDb2dVertex
 42
0.0
 10
-6.7999896E+01
 20
2.3199321E+02
 70
0
  0
VERTEX
  5
5b7
100
AcDbEntity
  8
199
100
AcDbVertex
100
AcDb2dVertex
 42
0.0
 10
-6.7999896E+01
 20
2.3999281E+02
 70
0
  0
SEQEND
  5
5b8
100
AcDbEntity
  0
POLYLINE
  5
5b9
100
AcDbEntity
  8
199
100
AcDb2dPolyline
  6
CONTINUOUS
 62
3
 66
1
 40
2.0E-01
 41
2.0E-01
 70
0
  0
VERTEX
  5
5ba
100
AcDbEntity
  8
199
100
AcDbVertex
100
AcDb2dVertex
 42
0.0
 10
-3.4999897E+01
 20
2.3199321E+02
 70
0
  0
VERTEX
  5
5bb
100
AcDbEntity
  8
199
100
AcDbVertex
100
AcDb2dVertex
 42
0.0
 10
-3.4999897E+01
 20
2.3599301E+02
 70
0
  0
SEQEND
  5
5bc
100
AcDbEntity
  0
POLYLINE
  5
5bd
100
AcDbEntity
  8
199
100
AcDb2dPolyline
  6
CONTINUOUS
 62
3
 66
1
 40
2.0E-01
 41
2.0E-01
 70
0
  0
VERTEX
  5
5be
100
AcDbEntity
  8
199
100
AcDbVertex
100
AcDb2dVertex
 42
0.0
 10
-1.6799984E+02
 20
2.3199321E+02
 70
0
  0
VERTEX
  5
5bf
100
AcDbEntity
  8
199
100
AcDbVertex
100
AcDb2dVertex
 42
0.0
 10
-1.6799984E+02
 20
2.3999281E+02
 70
0
  0
SEQEND
  5
5c0
100
AcDbEntity
  0
POLYLINE
  5
5c1
100
AcDbEntity
  8
199
100
AcDb2dPolyline
  6
CONTINUOUS
 62
3
 66
1
 40
2.0E-01
 41
2.0E-01
 70
0
  0
VERTEX
  5
5c2
100
AcDbEntity
  8
199
100
AcDbVertex
100
AcDb2dVertex
 42
0.0
 10
-1.5600045E+02
 20
2.3199321E+02
 70
0
  0
VERTEX
  5
5c3
100
AcDbEntity
  8
199
100
AcDbVertex
100
AcDb2dVertex
 42
0.0
 10
-1.5600045E+02
 20
2.3999281E+02
 70
0
  0
SEQEND
  5
5c4
100
AcDbEntity
  0
POLYLINE
  5
5c5
100
AcDbEntity
  8
199
100
AcDb2dPolyline
  6
CONTINUOUS
 62
5
 66
1
 40
4.0E-01
 41
4.0E-01
 70
0
  0
VERTEX
  5
5c6
100
AcDbEntity
  8
199
100
AcDbVertex
100
AcDb2dVertex
 42
0.0
 10
-1.8000007E+02
 20
9.600015E+01
 70
0
  0
VERTEX
  5
5c7
100
AcDbEntity
  8
199
100
AcDbVertex
100
AcDb2dVertex
 42
0.0
 10
-1.8000007E+02
 20
8.8000558E+01
 70
0
  0
SEQEND
  5
5c8
100
AcDbEntity
  0
POLYLINE
  5
5c9
100
AcDbEntity
  8
199
100
AcDb2dPolyline
  6
CONTINUOUS
 62
5
 66
1
 40
4.0E-01
 41
4.0E-01
 70
0
  0
VERTEX
  5
5ca
100
AcDbEntity
  8
199
100
AcDbVertex
100
AcDb2dVertex
 42
0.0
 10
-1.8000007E+02
 20
1.0399974E+02
 70
0
  0
VERTEX
  5
5cb
100
AcDbEntity
  8
199
100
AcDbVertex
100
AcDb2dVertex
 42
0.0
 10
-1.8000007E+02
 20
9.600015E+01
 70
0
  0
SEQEND
  5
5cc
100
AcDbEntity
  0
POLYLINE
  5
5cd
100
AcDbEntity
  8
199
100
AcDb2dPolyline
  6
CONTINUOUS
 62
5
 66
1
 40
4.0E-01
 41
4.0E-01
 70
0
  0
VERTEX
  5
5ce
100
AcDbEntity
  8
199
100
AcDbVertex
100
AcDb2dVertex
 42
0.0
 10
-1.8000007E+02
 20
1.1199933E+02
 70
0
  0
VERTEX
  5
5cf
100
AcDbEntity
  8
199
100
AcDbVertex
100
AcDb2dVertex
 42
0.0
 10
-1.8000007E+02
 20
1.0399974E+02
 70
0
  0
SEQEND
  5
5d0
100
AcDbEntity
  0
POLYLINE
  5
5d1
100
AcDbEntity
  8
199
100
AcDb2dPolyline
  6
CONTINUOUS
 62
5
 66
1
 40
4.0E-01
 41
4.0E-01
 70
0
  0
VERTEX
  5
5d2
100
AcDbEntity
  8
199
100
AcDbVertex
100
AcDb2dVertex
 42
0.0
 10
-1.8000007E+02
 20
1.1999893E+02
 70
0
  0
VERTEX
  5
5d3
100
AcDbEntity
  8
199
100
AcDbVertex
100
AcDb2dVertex
 42
0.0
 10
-1.8000007E+02
 20
1.1199933E+02
 70
0
  0
SEQEND
  5
5d4
100
AcDbEntity
  0
POLYLINE
  5
5d5
100
AcDbEntity
  8
199
100
AcDb2dPolyline
  6
CONTINUOUS
 62
5
 66
1
 40
4.0E-01
 41
4.0E-01
 70
0
  0
VERTEX
  5
5d6
100
AcDbEntity
  8
199
100
AcDbVertex
100
AcDb2dVertex
 42
0.0
 10
-1.8000007E+02
 20
1.2799852E+02
 70
0
  0
VERTEX
  5
5d7
100
AcDbEntity
  8
199
100
AcDbVertex
100
AcDb2dVertex
 42
0.0
 10
-1.8000007E+02
 20
1.1999893E+02
 70
0
  0
SEQEND
  5
5d8
100
AcDbEntity
  0
POLYLINE
  5
5d9
100
AcDbEntity
  8
199
100
AcDb2dPolyline
  6
CONTINUOUS
 62
5
 66
1
 40
4.0E-01
 41
4.0E-01
 70
0
  0
VERTEX
  5
5da
100
AcDbEntity
  8
199
100
AcDbVertex
100
AcDb2dVertex
 42
0.0
 10
-1.8000007E+02
 20
1.3599811E+02
 70
0
  0
VERTEX
  5
5db
100
AcDbEntity
  8
199
100
AcDbVertex
100
AcDb2dVertex
 42
0.0
 10
-1.8000007E+02
 20
1.2799852E+02
 70
0
  0
SEQEND
  5
5dc
100
AcDbEntity
  0
POLYLINE
  5
5dd
100
AcDbEntity
  8
199
100
AcDb2dPolyline
  6
CONTINUOUS
 62
5
 66
1
 40
4.0E-01
 41
4.0E-01
 70
0
  0
VERTEX
  5
5de
100
AcDbEntity
  8
199
100
AcDbVertex
100
AcDb2dVertex
 42
0.0
 10
-1.8000007E+02
 20
1.439977E+02
 70
0
  0
VERTEX
  5
5df
100
AcDbEntity
  8
199
100
AcDbVertex
100
AcDb2dVertex
 42
0.0
 10
-1.8000007E+02
 20
1.3599811E+02
 70
0
  0
SEQEND
  5
5e0
100
AcDbEntity
  0
POLYLINE
  5
5e1
100
AcDbEntity
  8
199
100
AcDb2dPolyline
  6
CONTINUOUS
 62
5
 66
1
 40
4.0E-01
 41
4.0E-01
 70
0
  0
VERTEX
  5
5e2
100
AcDbEntity
  8
199
100
AcDbVertex
100
AcDb2dVertex
 42
0.0
 10
-1.8000007E+02
 20
1.5199729E+02
 70
0
  0
VERTEX
  5
5e3
100
AcDbEntity
  8
199
100
AcDbVertex
100
AcDb2dVertex
 42
0.0
 10
-1.8000007E+02
 20
1.439977E+02
 70
0
  0
SEQEND
  5
5e4
100
AcDbEntity
  0
POLYLINE
  5
5e5
100
AcDbEntity
  8
199
100
AcDb2dPolyline
  6
CONTINUOUS
 62
5
 66
1
 40
4.0E-01
 41
4.0E-01
 70
0
  0
VERTEX
  5
5e6
100
AcDbEntity
  8
199
100
AcDbVertex
100
AcDb2dVertex
 42
0.0
 10
-1.8000007E+02
 20
1.5999689E+02
 70
0
  0
VERTEX
  5
5e7
100
AcDbEntity
  8
199
100
AcDbVertex
100
AcDb2dVertex
 42
0.0
 10
-1.8000007E+02
 20
1.5199729E+02
 70
0
  0
SEQEND
  5
5e8
100
AcDbEntity
  0
POLYLINE
  5
5e9
100
AcDbEntity
  8
199
100
AcDb2dPolyline
  6
CONTINUOUS
 62
5
 66
1
 40
4.0E-01
 41
4.0E-01
 70
0
  0
VERTEX
  5
5ea
100
AcDbEntity
  8
199
100
AcDbVertex
100
AcDb2dVertex
 42
0.0
 10
-1.8000007E+02
 20
1.6799648E+02
 70
0
  0
VERTEX
  5
5eb
100
AcDbEntity
  8
199
100
AcDbVertex
100
AcDb2dVertex
 42
0.0
 10
-1.8000007E+02
 20
1.5999689E+02
 70
0
  0
SEQEND
  5
5ec
100
AcDbEntity
  0
POLYLINE
  5
5ed
100
AcDbEntity
  8
199
100
AcDb2dPolyline
  6
CONTINUOUS
 62
5
 66
1
 40
4.0E-01
 41
4.0E-01
 70
0
  0
VERTEX
  5
5ee
100
AcDbEntity
  8
199
100
AcDbVertex
100
AcDb2dVertex
 42
0.0
 10
-1.8000007E+02
 20
1.7599607E+02
 70
0
  0
VERTEX
  5
5ef
100
AcDbEntity
  8
199
100
AcDbVertex
100
AcDb2dVertex
 42
0.0
 10
-1.8000007E+02
 20
1.6799648E+02
 70
0
  0
SEQEND
  5
5f0
100
AcDbEntity
  0
POLYLINE
  5
5f1
100
AcDbEntity
  8
199
100
AcDb2dPolyline
  6
CONTINUOUS
 62
5
 66
1
 40
4.0E-01
 41
4.0E-01
 70
0
  0
VERTEX
  5
5f2
100
AcDbEntity
  8
199
100
AcDbVertex
100
AcDb2dVertex
 42
0.0
 10
-1.8000007E+02
 20
1.8399566E+02
 70
0
  0
VERTEX
  5
5f3
100
AcDbEntity
  8
199
100
AcDbVertex
100
AcDb2dVertex
 42
0.0
 10
-1.8000007E+02
 20
1.7599607E+02
 70
0
  0
SEQEND
  5
5f4
100
AcDbEntity
  0
POLYLINE
  5
5f5
100
AcDbEntity
  8
199
100
AcDb2dPolyline
  6
CONTINUOUS
 62
5
 66
1
 40
4.0E-01
 41
4.0E-01
 70
0
  0
VERTEX
  5
5f6
100
AcDbEntity
  8
199
100
AcDbVertex
100
AcDb2dVertex
 42
0.0
 10
-1.8000007E+02
 20
1.9199525E+02
 70
0
  0
VERTEX
  5
5f7
100
AcDbEntity
  8
199
100
AcDbVertex
100
AcDb2dVertex
 42
0.0
 10
-1.8000007E+02
 20
1.8399566E+02
 70
0
  0
SEQEND
  5
5f8
100
AcDbEntity
  0
POLYLINE
  5
5f9
100
AcDbEntity
  8
199
100
AcDb2dPolyline
  6
CONTINUOUS
 62
5
 66
1
 40
4.0E-01
 41
4.0E-01
 70
0
  0
VERTEX
  5
5fa
100
AcDbEntity
  8
199
100
AcDbVertex
100
AcDb2dVertex
 42
0.0
 10
-1.8000007E+02
 20
1.9999485E+02
 70
0
  0
VERTEX
  5
5fb
100
AcDbEntity
  8
199
100
AcDbVertex
100
AcDb2dVertex
 42
0.0
 10
-1.8000007E+02
 20
1.9199525E+02
 70
0
  0
SEQEND
  5
5fc
100
AcDbEntity
  0
POLYLINE
  5
5fd
100
AcDbEntity
  8
199
100
AcDb2dPolyline
  6
CONTINUOUS
 62
5
 66
1
 40
4.0E-01
 41
4.0E-01
 70
0
  0
VERTEX
  5
5fe
100
AcDbEntity
  8
199
100
AcDbVertex
100
AcDb2dVertex
 42
0.0
 10
-1.8000007E+02
 20
2.0799444E+02
 70
0
  0
VERTEX
  5
5ff
100
AcDbEntity
  8
199
100
AcDbVertex
100
AcDb2dVertex
 42
0.0
 10
-1.8000007E+02
 20
1.9999485E+02
 70
0
  0
SEQEND
  5
600
100
AcDbEntity
  0
POLYLINE
  5
601
100
AcDbEntity
  8
199
100
AcDb2dPolyline
  6
CONTINUOUS
 62
5
 66
1
 40
4.0E-01
 41
4.0E-01
 70
0
  0
VERTEX
  5
602
100
AcDbEntity
  8
199
100
AcDbVertex
100
AcDb2dVertex
 42
0.0
 10
-1.8000007E+02
 20
2.1599403E+02
 70
0
  0
VERTEX
  5
603
100
AcDbEntity
  8
199
100
AcDbVertex
100
AcDb2dVertex
 42
0.0
 10
-1.8000007E+02
 20
2.0799444E+02
 70
0
  0
SEQEND
  5
604
100
AcDbEntity
  0
POLYLINE
  5
605
100
AcDbEntity
  8
199
100
AcDb2dPolyline
  6
CONTINUOUS
 62
5
 66
1
 40
4.0E-01
 41
4.0E-01
 70
0
  0
VERTEX
  5
606
100
AcDbEntity
  8
199
100
AcDbVertex
100
AcDb2dVertex
 42
0.0
 10
-1.8000007E+02
 20
2.2399362E+02
 70
0
  0
VERTEX
  5
607
100
AcDbEntity
  8
199
100
AcDbVertex
100
AcDb2dVertex
 42
0.0
 10
-1.8000007E+02
 20
2.1599403E+02
 70
0
  0
SEQEND
  5
608
100
AcDbEntity
  0
POLYLINE
  5
609
100
AcDbEntity
  8
199
100
AcDb2dPolyline
  6
CONTINUOUS
 62
5
 66
1
 40
4.0E-01
 41
4.0E-01
 70
0
  0
VERTEX
  5
60a
100
AcDbEntity
  8
199
100
AcDbVertex
100
AcDb2dVertex
 42
0.0
 10
-1.8000007E+02
 20
2.3199321E+02
 70
0
  0
VERTEX
  5
60b
100
AcDbEntity
  8
199
100
AcDbVertex
100
AcDb2dVertex
 42
0.0
 10
-1.8000007E+02
 20
2.2399362E+02
 70
0
  0
SEQEND
  5
60c
100
AcDbEntity
  0
POLYLINE
  5
60d
100
AcDbEntity
  8
199
100
AcDb2dPolyline
  6
CONTINUOUS
 62
5
 66
1
 40
4.0E-01
 41
4.0E-01
 70
0
  0
VERTEX
  5
60e
100
AcDbEntity
  8
199
100
AcDbVertex
100
AcDb2dVertex
 42
0.0
 10
-1.8000007E+02
 20
2.3999281E+02
 70
0
  0
VERTEX
  5
60f
100
AcDbEntity
  8
199
100
AcDbVertex
100
AcDb2dVertex
 42
0.0
 10
-1.8000007E+02
 20
2.3199321E+02
 70
0
  0
SEQEND
  5
610
100
AcDbEntity
  0
POINT
  5
611
100
AcDbEntity
  8
Drafting_Hidden_Entities
100
AcDbPoint
  6
CONTINUOUS
 62
1
 10
0.0
 20
0.0
  0
ENDBLK
  5
612
100
AcDbEntity
100
AcDbBlockEnd
  0
BLOCK
  5
613
100
AcDbEntity
100
AcDbBlockBegin
  2
NEW_TITELBLOCK
 10
0.0
 20
0.0
 70
0
  0
TEXT
  5
614
100
AcDbEntity
  8
199
100
AcDbText
  6
CONTINUOUS
 62
1
 10
-1.6507579E+02
 20
1.733944
 40
1.8
  1
This drawing may not be used for commercial purposes without written authorisation.
100
AcDbText
  0
TEXT
  5
615
100
AcDbEntity
  8
199
100
AcDbText
  6
CONTINUOUS
 62
1
 10
-9.7741861E+01
 20
8.2773743E+01
 40
2.500293
  1
XX
100
AcDbText
  0
TEXT
  5
616
100
AcDbEntity
  8
199
100
AcDbText
  6
CONTINUOUS
 62
1
 10
-6.4736816E+01
 20
8.2773743E+01
 40
2.500293
  1
XX
100
AcDbText
  0
TEXT
  5
617
100
AcDbEntity
  8
199
100
AcDbText
  6
CONTINUOUS
 62
1
 10
-3.1732612E+01
 20
8.2773743E+01
 40
2.500293
  1
XX
100
AcDbText
  0
TEXT
  5
618
100
AcDbEntity
  8
199
100
AcDbText
  6
CONTINUOUS
 62
1
 10
-1.5274326E+02
 20
8.2773743E+01
 40
2.500293
  1
XX
100
AcDbText
  0
TEXT
  5
619
100
AcDbEntity
  8
199
100
AcDbText
  6
CONTINUOUS
 62
1
 10
-1.6474097E+02
 20
8.2773743E+01
 40
2.500293
  1
XX
100
AcDbText
  0
TEXT
  5
61a
100
AcDbEntity
  8
199
100
AcDbText
  6
CONTINUOUS
 62
1
 10
-1.7673951E+02
 20
8.2773743E+01
 40
2.500293
  1
01
100
AcDbText
  0
TEXT
  5
61b
100
AcDbEntity
  8
199
100
AcDbText
  6
CONTINUOUS
 62
5
 10
-1.5380797E+02
 20
5.3861845E+01
 40
4.999745
  1
 
100
AcDbText
  0
POLYLINE
  5
61c
100
AcDbEntity
  8
199
100
AcDb2dPolyline
  6
CONTINUOUS
 62
2
 66
1
 40
2.0E-01
 41
2.0E-01
 70
0
  0
VERTEX
  5
61d
100
AcDbEntity
  8
199
100
AcDbVertex
100
AcDb2dVertex
 42
0.0
 10
-1.4174282E+02
 20
3.1225559E+01
 70
0
  0
VERTEX
  5
61e
100
AcDbEntity
  8
199
100
AcDbVertex
100
AcDb2dVertex
 42
0.0
 10
-1.4174282E+02
 20
1.7502121E+01
 70
0
  0
SEQEND
  5
61f
100
AcDbEntity
  0
POLYLINE
  5
620
100
AcDbEntity
  8
199
100
AcDb2dPolyline
  6
CONTINUOUS
 62
2
 66
1
 40
2.0E-01
 41
2.0E-01
 70
0
  0
VERTEX
  5
621
100
AcDbEntity
  8
199
100
AcDbVertex
100
AcDb2dVertex
 42
0.0
 10
-1.5695146E+02
 20
1.7502121E+01
 70
0
  0
VERTEX
  5
622
100
AcDbEntity
  8
199
100
AcDbVertex
100
AcDb2dVertex
 42
0.0
 10
-1.5695146E+02
 20
3.1225559E+01
 70
0
  0
SEQEND
  5
623
100
AcDbEntity
  0
POLYLINE
  5
624
100
AcDbEntity
  8
199
100
AcDb2dPolyline
  6
CONTINUOUS
 62
2
 66
1
 40
2.0E-01
 41
2.0E-01
 70
0
  0
VERTEX
  5
625
100
AcDbEntity
  8
199
100
AcDbVertex
100
AcDb2dVertex
 42
0.0
 10
-1.4934714E+02
 20
2.8690785E+01
 70
0
  0
VERTEX
  5
626
100
AcDbEntity
  8
199
100
AcDbVertex
100
AcDb2dVertex
 42
0.0
 10
-1.4174282E+02
 20
3.1225559E+01
 70
0
  0
SEQEND
  5
627
100
AcDbEntity
  0
POLYLINE
  5
628
100
AcDbEntity
  8
199
100
AcDb2dPolyline
  6
CONTINUOUS
 62
2
 66
1
 40
2.0E-01
 41
2.0E-01
 70
0
  0
VERTEX
  5
629
100
AcDbEntity
  8
199
100
AcDbVertex
100
AcDb2dVertex
 42
0.0
 10
-1.4699738E+02
 20
2.8298879E+01
 70
0
  0
VERTEX
  5
62a
100
AcDbEntity
  8
199
100
AcDbVertex
100
AcDb2dVertex
 42
0.0
 10
-1.4699738E+02
 20
2.5203158E+01
 70
0
  0
SEQEND
  5
62b
100
AcDbEntity
  0
POLYLINE
  5
62c
100
AcDbEntity
  8
199
100
AcDb2dPolyline
  6
CONTINUOUS
 62
2
 66
1
 40
2.0E-01
 41
2.0E-01
 70
0
  0
VERTEX
  5
62d
100
AcDbEntity
  8
199
100
AcDbVertex
100
AcDb2dVertex
 42
0.0
 10
-1.4419601E+02
 20
2.5203158E+01
 70
0
  0
VERTEX
  5
62e
100
AcDbEntity
  8
199
100
AcDbVertex
100
AcDb2dVertex
 42
0.0
 10
-1.4419601E+02
 20
2.8298879E+01
 70
0
  0
SEQEND
  5
62f
100
AcDbEntity
  0
POLYLINE
  5
630
100
AcDbEntity
  8
199
100
AcDb2dPolyline
  6
CONTINUOUS
 62
2
 66
1
 40
2.0E-01
 41
2.0E-01
 70
0
  0
VERTEX
  5
631
100
AcDbEntity
  8
199
100
AcDbVertex
100
AcDb2dVertex
 42
0.0
 10
-1.425157E+02
 20
2.8298879E+01
 70
0
  0
VERTEX
  5
632
100
AcDbEntity
  8
199
100
AcDbVertex
100
AcDb2dVertex
 42
0.0
 10
-1.425157E+02
 20
2.0428801E+01
 70
0
  0
SEQEND
  5
633
100
AcDbEntity
  0
TEXT
  5
634
100
AcDbEntity
  8
199
100
AcDbText
  6
CONTINUOUS
 62
1
 10
-1.6337687E+02
 20
3.6752134E+01
 40
2.500293
  1
XX-XX-'XX
100
AcDbText
  0
TEXT
  5
635
100
AcDbEntity
  8
199
100
AcDbText
  6
CONTINUOUS
 62
1
 10
-1.1573926E+02
 20
4.2750987E+01
 40
2.500293
  1
X.X
100
AcDbText
  0
POLYLINE
  5
636
100
AcDbEntity
  8
199
100
AcDb2dPolyline
  6
CONTINUOUS
 62
5
 66
1
 40
4.0E-01
 41
4.0E-01
 70
0
  0
VERTEX
  5
637
100
AcDbEntity
  8
199
100
AcDbVertex
100
AcDb2dVertex
 42
0.0
 10
-6.7999896E+01
 20
4.6999719E+01
 70
0
  0
VERTEX
  5
638
100
AcDbEntity
  8
199
100
AcDbVertex
100
AcDb2dVertex
 42
0.0
 10
-6.7999896E+01
 20
7.2000533E+01
 70
0
  0
SEQEND
  5
639
100
AcDbEntity
  0
POLYLINE
  5
63a
100
AcDbEntity
  8
199
100
AcDb2dPolyline
  6
CONTINUOUS
 62
3
 66
1
 40
2.0E-01
 41
2.0E-01
 70
0
  0
VERTEX
  5
63b
100
AcDbEntity
  8
199
100
AcDbVertex
100
AcDb2dVertex
 42
0.0
 10
-6.7999896E+01
 20
7.2000533E+01
 70
0
  0
VERTEX
  5
63c
100
AcDbEntity
  8
199
100
AcDbVertex
100
AcDb2dVertex
 42
0.0
 10
-6.7999896E+01
 20
8.0000966E+01
 70
0
  0
SEQEND
  5
63d
100
AcDbEntity
  0
POLYLINE
  5
63e
100
AcDbEntity
  8
199
100
AcDb2dPolyline
  6
CONTINUOUS
 62
3
 66
1
 40
3.0E-01
 41
3.0E-01
 70
0
  0
VERTEX
  5
63f
100
AcDbEntity
  8
199
100
AcDbVertex
100
AcDb2dVertex
 42
0.0
 10
-6.7999896E+01
 20
7.2000533E+01
 70
0
  0
VERTEX
  5
640
100
AcDbEntity
  8
199
100
AcDbVertex
100
AcDb2dVertex
 42
0.0
 10
0.0
 20
7.2000533E+01
 70
0
  0
SEQEND
  5
641
100
AcDbEntity
  0
POLYLINE
  5
642
100
AcDbEntity
  8
199
100
AcDb2dPolyline
  6
CONTINUOUS
 62
5
 66
1
 40
4.0E-01
 41
4.0E-01
 70
0
  0
VERTEX
  5
643
100
AcDbEntity
  8
199
100
AcDbVertex
100
AcDb2dVertex
 42
0.0
 10
-5.299982E+01
 20
1.1001121E+01
 70
0
  0
VERTEX
  5
644
100
AcDbEntity
  8
199
100
AcDbVertex
100
AcDb2dVertex
 42
0.0
 10
0.0
 20
1.1001121E+01
 70
0
  0
SEQEND
  5
645
100
AcDbEntity
  0
POLYLINE
  5
646
100
AcDbEntity
  8
199
100
AcDb2dPolyline
  6
CONTINUOUS
 62
5
 66
1
 40
4.0E-01
 41
4.0E-01
 70
0
  0
VERTEX
  5
647
100
AcDbEntity
  8
199
100
AcDbVertex
100
AcDb2dVertex
 42
0.0
 10
-1.8000007E+02
 20
7.2000533E+01
 70
0
  0
VERTEX
  5
648
100
AcDbEntity
  8
199
100
AcDbVertex
100
AcDb2dVertex
 42
0.0
 10
-6.7999896E+01
 20
7.2000533E+01
 70
0
  0
SEQEND
  5
649
100
AcDbEntity
  0
POLYLINE
  5
64a
100
AcDbEntity
  8
199
100
AcDb2dPolyline
  6
CONTINUOUS
 62
3
 66
1
 40
3.0E-01
 41
3.0E-01
 70
0
  0
VERTEX
  5
64b
100
AcDbEntity
  8
199
100
AcDbVertex
100
AcDb2dVertex
 42
0.0
 10
-1.8000007E+02
 20
3.5000331E+01
 70
0
  0
VERTEX
  5
64c
100
AcDbEntity
  8
199
100
AcDbVertex
100
AcDb2dVertex
 42
0.0
 10
-6.7999896E+01
 20
3.5000331E+01
 70
0
  0
SEQEND
  5
64d
100
AcDbEntity
  0
POLYLINE
  5
64e
100
AcDbEntity
  8
199
100
AcDb2dPolyline
  6
CONTINUOUS
 62
3
 66
1
 40
2.0E-01
 41
2.0E-01
 70
0
  0
VERTEX
  5
64f
100
AcDbEntity
  8
199
100
AcDbVertex
100
AcDb2dVertex
 42
0.0
 10
-9.0000456E+01
 20
4.1000025E+01
 70
0
  0
VERTEX
  5
650
100
AcDbEntity
  8
199
100
AcDbVertex
100
AcDb2dVertex
 42
0.0
 10
-1.8000007E+02
 20
4.1000025E+01
 70
0
  0
SEQEND
  5
651
100
AcDbEntity
  0
POLYLINE
  5
652
100
AcDbEntity
  8
199
100
AcDb2dPolyline
  6
CONTINUOUS
 62
5
 66
1
 40
4.0E-01
 41
4.0E-01
 70
0
  0
VERTEX
  5
653
100
AcDbEntity
  8
199
100
AcDbVertex
100
AcDb2dVertex
 42
0.0
 10
-1.8000007E+02
 20
4.6999719E+01
 70
0
  0
VERTEX
  5
654
100
AcDbEntity
  8
199
100
AcDbVertex
100
AcDb2dVertex
 42
0.0
 10
-6.7999896E+01
 20
4.6999719E+01
 70
0
  0
SEQEND
  5
655
100
AcDbEntity
  0
POLYLINE
  5
656
100
AcDbEntity
  8
199
100
AcDb2dPolyline
  6
CONTINUOUS
 62
5
 66
1
 40
4.0E-01
 41
4.0E-01
 70
0
  0
VERTEX
  5
657
100
AcDbEntity
  8
199
100
AcDbVertex
100
AcDb2dVertex
 42
0.0
 10
-1.8000007E+02
 20
6.2001043E+01
 70
0
  0
VERTEX
  5
658
100
AcDbEntity
  8
199
100
AcDbVertex
100
AcDb2dVertex
 42
0.0
 10
-6.7999896E+01
 20
6.2001043E+01
 70
0
  0
SEQEND
  5
659
100
AcDbEntity
  0
POLYLINE
  5
65a
100
AcDbEntity
  8
199
100
AcDb2dPolyline
  6
CONTINUOUS
 62
3
 66
1
 40
2.0E-01
 41
2.0E-01
 70
0
  0
VERTEX
  5
65b
100
AcDbEntity
  8
199
100
AcDbVertex
100
AcDb2dVertex
 42
0.0
 10
-1.3499984E+02
 20
4.6999719E+01
 70
0
  0
VERTEX
  5
65c
100
AcDbEntity
  8
199
100
AcDbVertex
100
AcDb2dVertex
 42
0.0
 10
-1.3499984E+02
 20
3.5000331E+01
 70
0
  0
SEQEND
  5
65d
100
AcDbEntity
  0
POLYLINE
  5
65e
100
AcDbEntity
  8
199
100
AcDb2dPolyline
  6
CONTINUOUS
 62
3
 66
1
 40
2.0E-01
 41
2.0E-01
 70
0
  0
VERTEX
  5
65f
100
AcDbEntity
  8
199
100
AcDbVertex
100
AcDb2dVertex
 42
0.0
 10
-9.0000456E+01
 20
3.5000331E+01
 70
0
  0
VERTEX
  5
660
100
AcDbEntity
  8
199
100
AcDbVertex
100
AcDb2dVertex
 42
0.0
 10
-9.0000456E+01
 20
4.6999719E+01
 70
0
  0
SEQEND
  5
661
100
AcDbEntity
  0
TEXT
  5
662
100
AcDbEntity
  8
199
100
AcDbText
  6
CONTINUOUS
 62
1
 10
-1.7799176E+02
 20
3.6752134E+01
 40
2.500293
  1
Date:
100
AcDbText
  0
TEXT
  5
663
100
AcDbEntity
  8
199
100
AcDbText
  6
CONTINUOUS
 62
1
 10
-1.7799176E+02
 20
4.2750987E+01
 40
2.500293
  1
Scale:
100
AcDbText
  0
TEXT
  5
664
100
AcDbEntity
  8
199
100
AcDbText
  6
CONTINUOUS
 62
1
 10
-1.6158301E+02
 20
4.2676138E+01
 40
2.500293
  1
X:X
100
AcDbText
  0
TEXT
  5
665
100
AcDbEntity
  8
199
100
AcDbText
  6
CONTINUOUS
 62
1
 10
-1.3300751E+02
 20
4.2750987E+01
 40
2.500293
  1
Drawn:
100
AcDbText
  0
TEXT
  5
666
100
AcDbEntity
  8
199
100
AcDbText
  6
CONTINUOUS
 62
1
 10
-1.3300751E+02
 20
3.6752134E+01
 40
2.500293
  1
Checked:
100
AcDbText
  0
POLYLINE
  5
667
100
AcDbEntity
  8
199
100
AcDb2dPolyline
  6
CONTINUOUS
 62
5
 66
1
 40
4.0E-01
 41
4.0E-01
 70
0
  0
VERTEX
  5
668
100
AcDbEntity
  8
199
100
AcDbVertex
100
AcDb2dVertex
 42
0.0
 10
-5.299982E+01
 20
1.1001121E+01
 70
0
  0
VERTEX
  5
669
100
AcDbEntity
  8
199
100
AcDbVertex
100
AcDb2dVertex
 42
0.0
 10
-5.299982E+01
 20
2.6001197E+01
 70
0
  0
SEQEND
  5
66a
100
AcDbEntity
  0
TEXT
  5
66b
100
AcDbEntity
  8
199
100
AcDbText
  6
CONTINUOUS
 62
1
 10
-8.7631359E+01
 20
3.5948138E+01
 40
1.79974
  1
Dim. in mm
100
AcDbText
  0
POLYLINE
  5
66c
100
AcDbEntity
  8
199
100
AcDb2dPolyline
  6
CONTINUOUS
 62
3
 66
1
 40
2.0E-01
 41
2.0E-01
 70
0
  0
VERTEX
  5
66d
100
AcDbEntity
  8
199
100
AcDbVertex
100
AcDb2dVertex
 42
9.9999992E-01
 10
-8.3502049E+01
 20
4.2861999E+01
 70
0
  0
VERTEX
  5
66e
100
AcDbEntity
  8
199
100
AcDbVertex
100
AcDb2dVertex
 42
9.9999992E-01
 10
-8.0630875E+01
 20
4.2861999E+01
 70
0
  0
VERTEX
  5
66f
100
AcDbEntity
  8
199
100
AcDbVertex
100
AcDb2dVertex
 42
0.0
 10
-8.3502049E+01
 20
4.2861999E+01
 70
0
  0
SEQEND
  5
670
100
AcDbEntity
  0
POLYLINE
  5
671
100
AcDbEntity
  8
199
100
AcDb2dPolyline
  6
CONTINUOUS
 62
3
 66
1
 40
2.0E-01
 41
2.0E-01
 70
0
  0
VERTEX
  5
672
100
AcDbEntity
  8
199
100
AcDbVertex
100
AcDb2dVertex
 42
9.9999992E-01
 10
-8.4767754E+01
 20
4.2861998E+01
 70
0
  0
VERTEX
  5
673
100
AcDbEntity
  8
199
100
AcDbVertex
100
AcDb2dVertex
 42
9.9999992E-01
 10
-7.936517E+01
 20
4.2862E+01
 70
0
  0
VERTEX
  5
674
100
AcDbEntity
  8
199
100
AcDbVertex
100
AcDb2dVertex
 42
0.0
 10
-8.4767754E+01
 20
4.2861998E+01
 70
0
  0
SEQEND
  5
675
100
AcDbEntity
  0
POLYLINE
  5
676
100
AcDbEntity
  8
199
100
AcDb2dPolyline
  6
CONTINUOUS
 62
3
 66
1
 40
2.0E-01
 41
2.0E-01
 70
0
  0
VERTEX
  5
677
100
AcDbEntity
  8
199
100
AcDbVertex
100
AcDb2dVertex
 42
0.0
 10
-7.7446008E+01
 20
4.4297586E+01
 70
0
  0
VERTEX
  5
678
100
AcDbEntity
  8
199
100
AcDbVertex
100
AcDb2dVertex
 42
0.0
 10
-7.2806211E+01
 20
4.5563291E+01
 70
0
  0
SEQEND
  5
679
100
AcDbEntity
  0
POLYLINE
  5
67a
100
AcDbEntity
  8
199
100
AcDb2dPolyline
  6
CONTINUOUS
 62
3
 66
1
 40
2.0E-01
 41
2.0E-01
 70
0
  0
VERTEX
  5
67b
100
AcDbEntity
  8
199
100
AcDbVertex
100
AcDb2dVertex
 42
0.0
 10
-7.7446008E+01
 20
4.1426412E+01
 70
0
  0
VERTEX
  5
67c
100
AcDbEntity
  8
199
100
AcDbVertex
100
AcDb2dVertex
 42
0.0
 10
-7.2806211E+01
 20
4.0160707E+01
 70
0
  0
SEQEND
  5
67d
100
AcDbEntity
  0
POLYLINE
  5
67e
100
AcDbEntity
  8
199
100
AcDb2dPolyline
  6
CONTINUOUS
 62
3
 66
1
 40
2.0E-01
 41
2.0E-01
 70
0
  0
VERTEX
  5
67f
100
AcDbEntity
  8
199
100
AcDbVertex
100
AcDb2dVertex
 42
0.0
 10
-7.2806211E+01
 20
4.0160707E+01
 70
0
  0
VERTEX
  5
680
100
AcDbEntity
  8
199
100
AcDbVertex
100
AcDb2dVertex
 42
0.0
 10
-7.2806211E+01
 20
4.5563291E+01
 70
0
  0
SEQEND
  5
681
100
AcDbEntity
  0
POLYLINE
  5
682
100
AcDbEntity
  8
199
100
AcDb2dPolyline
  6
CONTINUOUS
 62
3
 66
1
 40
2.0E-01
 41
2.0E-01
 70
0
  0
VERTEX
  5
683
100
AcDbEntity
  8
199
100
AcDbVertex
100
AcDb2dVertex
 42
0.0
 10
-7.7446008E+01
 20
4.4297586E+01
 70
0
  0
VERTEX
  5
684
100
AcDbEntity
  8
199
100
AcDbVertex
100
AcDb2dVertex
 42
0.0
 10
-7.7446008E+01
 20
4.1426412E+01
 70
0
  0
SEQEND
  5
685
100
AcDbEntity
  0
POLYLINE
  5
686
100
AcDbEntity
  8
199
100
AcDb2dPolyline
  6
CENTERLINE
 62
1
 66
1
 40
2.0E-01
 41
2.0E-01
 70
0
  0
VERTEX
  5
687
100
AcDbEntity
  8
199
100
AcDbVertex
100
AcDb2dVertex
 42
0.0
 10
-8.1816685E+01
 20
4.2861999E+01
 70
0
  0
VERTEX
  5
688
100
AcDbEntity
  8
199
100
AcDbVertex
100
AcDb2dVertex
 42
0.0
 10
-8.2316239E+01
 20
4.2861999E+01
 70
0
  0
SEQEND
  5
689
100
AcDbEntity
  0
POLYLINE
  5
68a
100
AcDbEntity
  8
199
100
AcDb2dPolyline
  6
CENTERLINE
 62
1
 66
1
 40
2.0E-01
 41
2.0E-01
 70
0
  0
VERTEX
  5
68b
100
AcDbEntity
  8
199
100
AcDbVertex
100
AcDb2dVertex
 42
0.0
 10
-8.2066462E+01
 20
4.3111776E+01
 70
0
  0
VERTEX
  5
68c
100
AcDbEntity
  8
199
100
AcDbVertex
100
AcDb2dVertex
 42
0.0
 10
-8.2066462E+01
 20
4.2612222E+01
 70
0
  0
SEQEND
  5
68d
100
AcDbEntity
  0
POLYLINE
  5
68e
100
AcDbEntity
  8
199
100
AcDb2dPolyline
  6
CENTERLINE
 62
1
 66
1
 40
2.0E-01
 41
2.0E-01
 70
0
  0
VERTEX
  5
68f
100
AcDbEntity
  8
199
100
AcDbVertex
100
AcDb2dVertex
 42
0.0
 10
-8.131629E+01
 20
4.2861999E+01
 70
0
  0
VERTEX
  5
690
100
AcDbEntity
  8
199
100
AcDbVertex
100
AcDb2dVertex
 42
0.0
 10
-7.8946352E+01
 20
4.2861999E+01
 70
0
  0
SEQEND
  5
691
100
AcDbEntity
  0
POLYLINE
  5
692
100
AcDbEntity
  8
199
100
AcDb2dPolyline
  6
CENTERLINE
 62
1
 66
1
 40
2.0E-01
 41
2.0E-01
 70
0
  0
VERTEX
  5
693
100
AcDbEntity
  8
199
100
AcDbVertex
100
AcDb2dVertex
 42
0.0
 10
-8.2066462E+01
 20
4.3612171E+01
 70
0
  0
VERTEX
  5
694
100
AcDbEntity
  8
199
100
AcDbVertex
100
AcDb2dVertex
 42
0.0
 10
-8.2066462E+01
 20
4.6063686E+01
 70
0
  0
SEQEND
  5
695
100
AcDbEntity
  0
POLYLINE
  5
696
100
AcDbEntity
  8
199
100
AcDb2dPolyline
  6
CENTERLINE
 62
1
 66
1
 40
2.0E-01
 41
2.0E-01
 70
0
  0
VERTEX
  5
697
100
AcDbEntity
  8
199
100
AcDbVertex
100
AcDb2dVertex
 42
0.0
 10
-8.2816634E+01
 20
4.2861999E+01
 70
0
  0
VERTEX
  5
698
100
AcDbEntity
  8
199
100
AcDbVertex
100
AcDb2dVertex
 42
0.0
 10
-8.5267308E+01
 20
4.2861999E+01
 70
0
  0
SEQEND
  5
699
100
AcDbEntity
  0
POLYLINE
  5
69a
100
AcDbEntity
  8
199
100
AcDb2dPolyline
  6
CENTERLINE
 62
1
 66
1
 40
2.0E-01
 41
2.0E-01
 70
0
  0
VERTEX
  5
69b
100
AcDbEntity
  8
199
100
AcDbVertex
100
AcDb2dVertex
 42
0.0
 10
-8.2066462E+01
 20
4.2111827E+01
 70
0
  0
VERTEX
  5
69c
100
AcDbEntity
  8
199
100
AcDbVertex
100
AcDb2dVertex
 42
0.0
 10
-8.2066462E+01
 20
3.9661153E+01
 70
0
  0
SEQEND
  5
69d
100
AcDbEntity
  0
POLYLINE
  5
69e
100
AcDbEntity
  8
199
100
AcDb2dPolyline
  6
CENTERLINE
 62
1
 66
1
 40
2.0E-01
 41
2.0E-01
 70
0
  0
VERTEX
  5
69f
100
AcDbEntity
  8
199
100
AcDbVertex
100
AcDb2dVertex
 42
0.0
 10
-7.8606588E+01
 20
4.2861999E+01
 70
0
  0
VERTEX
  5
6a0
100
AcDbEntity
  8
199
100
AcDbVertex
100
AcDb2dVertex
 42
0.0
 10
-7.8206272E+01
 20
4.2861999E+01
 70
0
  0
SEQEND
  5
6a1
100
AcDbEntity
  0
POLYLINE
  5
6a2
100
AcDbEntity
  8
199
100
AcDb2dPolyline
  6
CENTERLINE
 62
1
 66
1
 40
2.0E-01
 41
2.0E-01
 70
0
  0
VERTEX
  5
6a3
100
AcDbEntity
  8
199
100
AcDbVertex
100
AcDb2dVertex
 42
0.0
 10
-7.7906035E+01
 20
4.2861999E+01
 70
0
  0
VERTEX
  5
6a4
100
AcDbEntity
  8
199
100
AcDbVertex
100
AcDb2dVertex
 42
0.0
 10
-7.56059E+01
 20
4.2861999E+01
 70
0
  0
SEQEND
  5
6a5
100
AcDbEntity
  0
POLYLINE
  5
6a6
100
AcDbEntity
  8
199
100
AcDb2dPolyline
  6
CENTERLINE
 62
1
 66
1
 40
2.0E-01
 41
2.0E-01
 70
0
  0
VERTEX
  5
6a7
100
AcDbEntity
  8
199
100
AcDbVertex
100
AcDb2dVertex
 42
0.0
 10
-7.5306504E+01
 20
4.2861999E+01
 70
0
  0
VERTEX
  5
6a8
100
AcDbEntity
  8
199
100
AcDbVertex
100
AcDb2dVertex
 42
0.0
 10
-7.4906188E+01
 20
4.2861999E+01
 70
0
  0
SEQEND
  5
6a9
100
AcDbEntity
  0
POLYLINE
  5
6aa
100
AcDbEntity
  8
199
100
AcDb2dPolyline
  6
CENTERLINE
 62
1
 66
1
 40
2.0E-01
 41
2.0E-01
 70
0
  0
VERTEX
  5
6ab
100
AcDbEntity
  8
199
100
AcDbVertex
100
AcDb2dVertex
 42
0.0
 10
-7.4586608E+01
 20
4.2861999E+01
 70
0
  0
VERTEX
  5
6ac
100
AcDbEntity
  8
199
100
AcDbVertex
100
AcDb2dVertex
 42
0.0
 10
-7.2326E+01
 20
4.2861999E+01
 70
0
  0
SEQEND
  5
6ad
100
AcDbEntity
  0
POLYLINE
  5
6ae
100
AcDbEntity
  8
199
100
AcDb2dPolyline
  6
CONTINUOUS
 62
2
 66
1
 40
3.0E-01
 41
3.0E-01
 70
0
  0
VERTEX
  5
6af
100
AcDbEntity
  8
199
100
AcDbVertex
100
AcDb2dVertex
 42
0.0
 10
-1.4934714E+02
 20
1.8769508E+01
 70
0
  0
VERTEX
  5
6b0
100
AcDbEntity
  8
199
100
AcDbVertex
100
AcDb2dVertex
 42
0.0
 10
-1.4174282E+02
 20
1.6234734E+01
 70
0
  0
SEQEND
  5
6b1
100
AcDbEntity
  0
POLYLINE
  5
6b2
100
AcDbEntity
  8
199
100
AcDb2dPolyline
  6
CONTINUOUS
 62
2
 66
1
 40
2.0E-01
 41
2.0E-01
 70
0
  0
VERTEX
  5
6b3
100
AcDbEntity
  8
199
100
AcDbVertex
100
AcDb2dVertex
 42
0.0
 10
-1.4934714E+02
 20
2.0036895E+01
 70
0
  0
VERTEX
  5
6b4
100
AcDbEntity
  8
199
100
AcDbVertex
100
AcDb2dVertex
 42
0.0
 10
-1.4174282E+02
 20
1.7502121E+01
 70
0
  0
SEQEND
  5
6b5
100
AcDbEntity
  0
POLYLINE
  5
6b6
100
AcDbEntity
  8
199
100
AcDb2dPolyline
  6
CONTINUOUS
 62
2
 66
1
 40
3.0E-01
 41
3.0E-01
 70
0
  0
VERTEX
  5
6b7
100
AcDbEntity
  8
199
100
AcDbVertex
100
AcDb2dVertex
 42
0.0
 10
-1.5695146E+02
 20
1.6234734E+01
 70
0
  0
VERTEX
  5
6b8
100
AcDbEntity
  8
199
100
AcDbVertex
100
AcDb2dVertex
 42
0.0
 10
-1.4934714E+02
 20
1.8769508E+01
 70
0
  0
SEQEND
  5
6b9
100
AcDbEntity
  0
POLYLINE
  5
6ba
100
AcDbEntity
  8
199
100
AcDb2dPolyline
  6
CONTINUOUS
 62
2
 66
1
 40
2.0E-01
 41
2.0E-01
 70
0
  0
VERTEX
  5
6bb
100
AcDbEntity
  8
199
100
AcDbVertex
100
AcDb2dVertex
 42
0.0
 10
-1.4419601E+02
 20
2.0428801E+01
 70
0
  0
VERTEX
  5
6bc
100
AcDbEntity
  8
199
100
AcDbVertex
100
AcDb2dVertex
 42
0.0
 10
-1.4419601E+02
 20
2.3523681E+01
 70
0
  0
SEQEND
  5
6bd
100
AcDbEntity
  0
POLYLINE
  5
6be
100
AcDbEntity
  8
199
100
AcDb2dPolyline
  6
CONTINUOUS
 62
2
 66
1
 40
2.0E-01
 41
2.0E-01
 70
0
  0
VERTEX
  5
6bf
100
AcDbEntity
  8
199
100
AcDbVertex
100
AcDb2dVertex
 42
0.0
 10
-1.4699738E+02
 20
2.3523681E+01
 70
0
  0
VERTEX
  5
6c0
100
AcDbEntity
  8
199
100
AcDbVertex
100
AcDb2dVertex
 42
0.0
 10
-1.4699738E+02
 20
2.0428801E+01
 70
0
  0
SEQEND
  5
6c1
100
AcDbEntity
  0
POLYLINE
  5
6c2
100
AcDbEntity
  8
199
100
AcDb2dPolyline
  6
CONTINUOUS
 62
2
 66
1
 40
2.0E-01
 41
2.0E-01
 70
0
  0
VERTEX
  5
6c3
100
AcDbEntity
  8
199
100
AcDbVertex
100
AcDb2dVertex
 42
0.0
 10
-1.4867854E+02
 20
2.0428801E+01
 70
0
  0
VERTEX
  5
6c4
100
AcDbEntity
  8
199
100
AcDbVertex
100
AcDb2dVertex
 42
0.0
 10
-1.4867854E+02
 20
2.8298879E+01
 70
0
  0
SEQEND
  5
6c5
100
AcDbEntity
  0
POLYLINE
  5
6c6
100
AcDbEntity
  8
199
100
AcDb2dPolyline
  6
CONTINUOUS
 62
2
 66
1
 40
3.0E-01
 41
3.0E-01
 70
0
  0
VERTEX
  5
6c7
100
AcDbEntity
  8
199
100
AcDbVertex
100
AcDb2dVertex
 42
0.0
 10
-1.4934714E+02
 20
2.9958172E+01
 70
0
  0
VERTEX
  5
6c8
100
AcDbEntity
  8
199
100
AcDbVertex
100
AcDb2dVertex
 42
0.0
 10
-1.4174282E+02
 20
3.2492946E+01
 70
0
  0
SEQEND
  5
6c9
100
AcDbEntity
  0
POLYLINE
  5
6ca
100
AcDbEntity
  8
199
100
AcDb2dPolyline
  6
CONTINUOUS
 62
2
 66
1
 40
3.0E-01
 41
3.0E-01
 70
0
  0
VERTEX
  5
6cb
100
AcDbEntity
  8
199
100
AcDbVertex
100
AcDb2dVertex
 42
0.0
 10
-1.5695146E+02
 20
3.2492946E+01
 70
0
  0
VERTEX
  5
6cc
100
AcDbEntity
  8
199
100
AcDbVertex
100
AcDb2dVertex
 42
0.0
 10
-1.4934714E+02
 20
2.9958172E+01
 70
0
  0
SEQEND
  5
6cd
100
AcDbEntity
  0
TEXT
  5
6ce
100
AcDbEntity
  8
199
100
AcDbText
  6
CONTINUOUS
 62
1
 10
-6.3915159E+01
 20
2.1491755E+01
 40
1.79974
  1
Size
100
AcDbText
  0
TEXT
  5
6cf
100
AcDbEntity
  8
199
100
AcDbText
  6
CONTINUOUS
 62
5
 10
-6.4493767E+01
 20
1.3324804E+01
 40
4.999745
  1
A
100
AcDbText
  0
TEXT
  5
6d0
100
AcDbEntity
  8
199
100
AcDbText
  6
CONTINUOUS
 62
1
 10
-6.6007567E+01
 20
5.998853
 40
1.79974
  1
Sheet No:     Number of sheets:
100
AcDbText
  0
TEXT
  5
6d1
100
AcDbEntity
  8
199
100
AcDbText
  6
CONTINUOUS
 62
3
 10
-5.9504114E+01
 20
1.3324804E+01
 40
3.500242
  1
0
100
AcDbText
  0
TEXT
  5
6d2
100
AcDbEntity
  8
199
100
AcDbText
  6
CONTINUOUS
 62
1
 10
-5.1000763E+01
 20
2.1491755E+01
 40
1.79974
  1
Identification No.:
100
AcDbText
  0
TEXT
  5
6d3
100
AcDbEntity
  8
199
100
AcDbText
  6
CONTINUOUS
 62
5
 10
-5.1000763E+01
 20
1.3306302E+01
 40
3.500242
  1
LHCB-TV....
100
AcDbText
  0
POLYLINE
  5
6d4
100
AcDbEntity
  8
199
100
AcDb2dPolyline
  6
CONTINUOUS
 62
3
 66
1
 40
3.0E-01
 41
3.0E-01
 70
0
  0
VERTEX
  5
6d5
100
AcDbEntity
  8
199
100
AcDbVertex
100
AcDb2dVertex
 42
0.0
 10
-6.7999896E+01
 20
1.1001121E+01
 70
0
  0
VERTEX
  5
6d6
100
AcDbEntity
  8
199
100
AcDbVertex
100
AcDb2dVertex
 42
0.0
 10
-5.299982E+01
 20
1.1001121E+01
 70
0
  0
SEQEND
  5
6d7
100
AcDbEntity
  0
TEXT
  5
6d8
100
AcDbEntity
  8
199
100
AcDbText
  6
CONTINUOUS
 62
3
 10
-4.8477763E+01
 20
5.998853
 40
2.500293
  1
X
100
AcDbText
  0
TEXT
  5
6d9
100
AcDbEntity
  8
199
100
AcDbText
  6
CONTINUOUS
 62
3
 10
-8.801065
 20
5.998853
 40
2.500293
  1
X
100
AcDbText
  0
TEXT
  5
6da
100
AcDbEntity
  8
199
100
AcDbText
  6
CONTINUOUS
 62
1
 10
-6.3746959E+01
 20
4.9993245E+01
 40
2.500293
  1
Revision
 50
9.0E+01
100
AcDbText
  0
POLYLINE
  5
6db
100
AcDbEntity
  8
199
100
AcDb2dPolyline
  6
CONTINUOUS
 62
3
 66
1
 40
2.0E-01
 41
2.0E-01
 70
0
  0
VERTEX
  5
6dc
100
AcDbEntity
  8
199
100
AcDbVertex
100
AcDb2dVertex
 42
0.0
 10
-6.2000202E+01
 20
7.2000533E+01
 70
0
  0
VERTEX
  5
6dd
100
AcDbEntity
  8
199
100
AcDbVertex
100
AcDb2dVertex
 42
0.0
 10
-6.2000202E+01
 20
4.2001222E+01
 70
0
  0
SEQEND
  5
6de
100
AcDbEntity
  0
POLYLINE
  5
6df
100
AcDbEntity
  8
199
100
AcDb2dPolyline
  6
CONTINUOUS
 62
3
 66
1
 40
2.0E-01
 41
2.0E-01
 70
0
  0
VERTEX
  5
6e0
100
AcDbEntity
  8
199
100
AcDbVertex
100
AcDb2dVertex
 42
0.0
 10
-5.6000508E+01
 20
7.2000533E+01
 70
0
  0
VERTEX
  5
6e1
100
AcDbEntity
  8
199
100
AcDbVertex
100
AcDb2dVertex
 42
0.0
 10
-5.6000508E+01
 20
4.2001222E+01
 70
0
  0
SEQEND
  5
6e2
100
AcDbEntity
  0
POLYLINE
  5
6e3
100
AcDbEntity
  8
199
100
AcDb2dPolyline
  6
CONTINUOUS
 62
3
 66
1
 40
2.0E-01
 41
2.0E-01
 70
0
  0
VERTEX
  5
6e4
100
AcDbEntity
  8
199
100
AcDbVertex
100
AcDb2dVertex
 42
0.0
 10
-6.2000202E+01
 20
5.400061E+01
 70
0
  0
VERTEX
  5
6e5
100
AcDbEntity
  8
199
100
AcDbVertex
100
AcDb2dVertex
 42
0.0
 10
0.0
 20
5.400061E+01
 70
0
  0
SEQEND
  5
6e6
100
AcDbEntity
  0
POLYLINE
  5
6e7
100
AcDbEntity
  8
199
100
AcDb2dPolyline
  6
CONTINUOUS
 62
3
 66
1
 40
2.0E-01
 41
2.0E-01
 70
0
  0
VERTEX
  5
6e8
100
AcDbEntity
  8
199
100
AcDbVertex
100
AcDb2dVertex
 42
0.0
 10
-6.2000202E+01
 20
6.0000304E+01
 70
0
  0
VERTEX
  5
6e9
100
AcDbEntity
  8
199
100
AcDbVertex
100
AcDb2dVertex
 42
0.0
 10
0.0
 20
6.0000304E+01
 70
0
  0
SEQEND
  5
6ea
100
AcDbEntity
  0
POLYLINE
  5
6eb
100
AcDbEntity
  8
199
100
AcDb2dPolyline
  6
CONTINUOUS
 62
3
 66
1
 40
2.0E-01
 41
2.0E-01
 70
0
  0
VERTEX
  5
6ec
100
AcDbEntity
  8
199
100
AcDbVertex
100
AcDb2dVertex
 42
0.0
 10
-6.2000202E+01
 20
6.6000839E+01
 70
0
  0
VERTEX
  5
6ed
100
AcDbEntity
  8
199
100
AcDbVertex
100
AcDb2dVertex
 42
0.0
 10
0.0
 20
6.6000839E+01
 70
0
  0
SEQEND
  5
6ee
100
AcDbEntity
  0
TEXT
  5
6ef
100
AcDbEntity
  8
199
100
AcDbText
  6
CONTINUOUS
 62
1
 10
-6.0251763E+01
 20
6.1748743E+01
 40
2.500293
  1
A
100
AcDbText
  0
TEXT
  5
6f0
100
AcDbEntity
  8
199
100
AcDbText
  6
CONTINUOUS
 62
1
 10
-6.0251763E+01
 20
5.5749049E+01
 40
2.500293
  1
B
100
AcDbText
  0
TEXT
  5
6f1
100
AcDbEntity
  8
199
100
AcDbText
  6
CONTINUOUS
 62
1
 10
-6.0251763E+01
 20
4.3750502E+01
 40
2.500293
  1
D
100
AcDbText
  0
TEXT
  5
6f2
100
AcDbEntity
  8
199
100
AcDbText
  6
CONTINUOUS
 62
1
 10
-4.5991767E+01
 20
6.7747596E+01
 40
2.500293
  1
Date
100
AcDbText
  0
POLYLINE
  5
6f3
100
AcDbEntity
  8
199
100
AcDb2dPolyline
  6
CONTINUOUS
 62
3
 66
1
 40
2.0E-01
 41
2.0E-01
 70
0
  0
VERTEX
  5
6f4
100
AcDbEntity
  8
199
100
AcDbVertex
100
AcDb2dVertex
 42
0.0
 10
-2.649991E+01
 20
4.2001222E+01
 70
0
  0
VERTEX
  5
6f5
100
AcDbEntity
  8
199
100
AcDbVertex
100
AcDb2dVertex
 42
0.0
 10
-2.649991E+01
 20
7.2000533E+01
 70
0
  0
SEQEND
  5
6f6
100
AcDbEntity
  0
TEXT
  5
6f7
100
AcDbEntity
  8
199
100
AcDbText
  6
CONTINUOUS
 62
1
 10
-1.825811E+01
 20
6.7747596E+01
 40
2.500293
  1
Name
100
AcDbText
  0
POLYLINE
  5
6f8
100
AcDbEntity
  8
199
100
AcDb2dPolyline
  6
CONTINUOUS
 62
3
 66
1
 40
3.0E-01
 41
3.0E-01
 70
0
  0
VERTEX
  5
6f9
100
AcDbEntity
  8
199
100
AcDbVertex
100
AcDb2dVertex
 42
0.0
 10
-1.8000007E+02
 20
8.0000966E+01
 70
0
  0
VERTEX
  5
6fa
100
AcDbEntity
  8
199
100
AcDbVertex
100
AcDb2dVertex
 42
0.0
 10
0.0
 20
8.0000966E+01
 70
0
  0
SEQEND
  5
6fb
100
AcDbEntity
  0
POLYLINE
  5
6fc
100
AcDbEntity
  8
199
100
AcDb2dPolyline
  6
CONTINUOUS
 62
3
 66
1
 40
2.0E-01
 41
2.0E-01
 70
0
  0
VERTEX
  5
6fd
100
AcDbEntity
  8
199
100
AcDbVertex
100
AcDb2dVertex
 42
0.0
 10
-1.8000007E+02
 20
8.8000558E+01
 70
0
  0
VERTEX
  5
6fe
100
AcDbEntity
  8
199
100
AcDbVertex
100
AcDb2dVertex
 42
0.0
 10
0.0
 20
8.8000558E+01
 70
0
  0
SEQEND
  5
6ff
100
AcDbEntity
  0
POLYLINE
  5
700
100
AcDbEntity
  8
199
100
AcDb2dPolyline
  6
CONTINUOUS
 62
3
 66
1
 40
2.0E-01
 41
2.0E-01
 70
0
  0
VERTEX
  5
701
100
AcDbEntity
  8
199
100
AcDbVertex
100
AcDb2dVertex
 42
0.0
 10
-1.6799984E+02
 20
7.2000533E+01
 70
0
  0
VERTEX
  5
702
100
AcDbEntity
  8
199
100
AcDbVertex
100
AcDb2dVertex
 42
0.0
 10
-1.6799984E+02
 20
8.0000966E+01
 70
0
  0
SEQEND
  5
703
100
AcDbEntity
  0
POLYLINE
  5
704
100
AcDbEntity
  8
199
100
AcDb2dPolyline
  6
CONTINUOUS
 62
3
 66
1
 40
2.0E-01
 41
2.0E-01
 70
0
  0
VERTEX
  5
705
100
AcDbEntity
  8
199
100
AcDbVertex
100
AcDb2dVertex
 42
0.0
 10
-1.5600045E+02
 20
7.2000533E+01
 70
0
  0
VERTEX
  5
706
100
AcDbEntity
  8
199
100
AcDbVertex
100
AcDb2dVertex
 42
0.0
 10
-1.5600045E+02
 20
8.0000966E+01
 70
0
  0
SEQEND
  5
707
100
AcDbEntity
  0
TEXT
  5
708
100
AcDbEntity
  8
199
100
AcDbText
  6
CONTINUOUS
 62
1
 10
-1.7849636E+02
 20
7.6493996E+01
 40
2.500293
  1
PART
100
AcDbText
  0
TEXT
  5
709
100
AcDbEntity
  8
199
100
AcDbText
  6
CONTINUOUS
 62
1
 10
-1.7664616E+02
 20
7.29988E+01
 40
2.500293
  1
NO.
100
AcDbText
  0
TEXT
  5
70a
100
AcDbEntity
  8
199
100
AcDbText
  6
CONTINUOUS
 62
1
 10
-1.6601256E+02
 20
7.6493996E+01
 40
2.500293
  1
NUM-
100
AcDbText
  0
TEXT
  5
70b
100
AcDbEntity
  8
199
100
AcDbText
  6
CONTINUOUS
 62
1
 10
-1.6576951E+02
 20
7.29988E+01
 40
2.500293
  1
BER
100
AcDbText
  0
POLYLINE
  5
70c
100
AcDbEntity
  8
199
100
AcDb2dPolyline
  6
CONTINUOUS
 62
3
 66
1
 40
2.0E-01
 41
2.0E-01
 70
0
  0
VERTEX
  5
70d
100
AcDbEntity
  8
199
100
AcDbVertex
100
AcDb2dVertex
 42
0.0
 10
-1.0099989E+02
 20
7.2000533E+01
 70
0
  0
VERTEX
  5
70e
100
AcDbEntity
  8
199
100
AcDbVertex
100
AcDb2dVertex
 42
0.0
 10
-1.0099989E+02
 20
8.0000966E+01
 70
0
  0
SEQEND
  5
70f
100
AcDbEntity
  0
POLYLINE
  5
710
100
AcDbEntity
  8
199
100
AcDb2dPolyline
  6
CONTINUOUS
 62
230
 66
1
 40
2.0E-01
 41
2.0E-01
 70
0
  0
VERTEX
  5
711
100
AcDbEntity
  8
199
100
AcDbVertex
100
AcDb2dVertex
 42
0.0
 10
-6.7999896E+01
 20
4.8240953
 70
0
  0
VERTEX
  5
712
100
AcDbEntity
  8
199
100
AcDbVertex
100
AcDb2dVertex
 42
0.0
 10
-6.7999896E+01
 20
3.4258246E+01
 70
0
  0
SEQEND
  5
713
100
AcDbEntity
  0
POLYLINE
  5
714
100
AcDbEntity
  8
199
100
AcDb2dPolyline
  6
CONTINUOUS
 62
3
 66
1
 40
2.0E-01
 41
2.0E-01
 70
0
  0
VERTEX
  5
715
100
AcDbEntity
  8
199
100
AcDbVertex
100
AcDb2dVertex
 42
0.0
 10
-3.4999897E+01
 20
7.2000533E+01
 70
0
  0
VERTEX
  5
716
100
AcDbEntity
  8
199
100
AcDbVertex
100
AcDb2dVertex
 42
0.0
 10
-3.4999897E+01
 20
8.0000966E+01
 70
0
  0
SEQEND
  5
717
100
AcDbEntity
  0
TEXT
  5
718
100
AcDbEntity
  8
199
100
AcDbText
  6
CONTINUOUS
 62
1
 10
-1.3500741E+02
 20
7.4755649E+01
 40
2.500293
  1
TITLE
100
AcDbText
  0
TEXT
  5
719
100
AcDbEntity
  8
199
100
AcDbText
  6
CONTINUOUS
 62
1
 10
-9.4508216E+01
 20
7.4755649E+01
 40
2.500293
  1
MATERIAL
100
AcDbText
  0
TEXT
  5
71a
100
AcDbEntity
  8
199
100
AcDbText
  6
CONTINUOUS
 62
1
 10
-6.249471E+01
 20
7.4755649E+01
 40
2.500293
  1
SIZE/NOTE
100
AcDbText
  0
TEXT
  5
71b
100
AcDbEntity
  8
199
100
AcDbText
  6
CONTINUOUS
 62
1
 10
-3.625551E+01
 20
7.4755649E+01
 40
2.500293
  1
 I.D. NO./NORM
100
AcDbText
  0
POLYLINE
  5
71c
100
AcDbEntity
  8
199
100
AcDb2dPolyline
  6
CONTINUOUS
 62
2
 66
1
 40
2.0E-01
 41
2.0E-01
 70
0
  0
VERTEX
  5
71d
100
AcDbEntity
  8
199
100
AcDbVertex
100
AcDb2dVertex
 42
0.0
 10
-1.6884741E+02
 20
2.0863598E+01
 70
0
  0
VERTEX
  5
71e
100
AcDbEntity
  8
199
100
AcDbVertex
100
AcDb2dVertex
 42
0.0
 10
-1.6884741E+02
 20
2.7864082E+01
 70
0
  0
SEQEND
  5
71f
100
AcDbEntity
  0
POLYLINE
  5
720
100
AcDbEntity
  8
199
100
AcDb2dPolyline
  6
CONTINUOUS
 62
2
 66
1
 40
2.0E-01
 41
2.0E-01
 70
0
  0
VERTEX
  5
721
100
AcDbEntity
  8
199
100
AcDbVertex
100
AcDb2dVertex
 42
0.0
 10
-1.6434721E+02
 20
2.2712957E+01
 70
0
  0
VERTEX
  5
722
100
AcDbEntity
  8
199
100
AcDbVertex
100
AcDb2dVertex
 42
0.0
 10
-1.6434721E+02
 20
2.7864082E+01
 70
0
  0
SEQEND
  5
723
100
AcDbEntity
  0
POLYLINE
  5
724
100
AcDbEntity
  8
199
100
AcDb2dPolyline
  6
CONTINUOUS
 62
2
 66
1
 40
2.0E-01
 41
2.0E-01
 70
0
  0
VERTEX
  5
725
100
AcDbEntity
  8
199
100
AcDbVertex
100
AcDb2dVertex
 42
0.0
 10
-1.5984702E+02
 20
2.0863598E+01
 70
0
  0
VERTEX
  5
726
100
AcDbEntity
  8
199
100
AcDbVertex
100
AcDb2dVertex
 42
0.0
 10
-1.5984702E+02
 20
2.7864082E+01
 70
0
  0
SEQEND
  5
727
100
AcDbEntity
  0
POLYLINE
  5
728
100
AcDbEntity
  8
199
100
AcDb2dPolyline
  6
CONTINUOUS
 62
2
 66
1
 40
2.0E-01
 41
2.0E-01
 70
0
  0
VERTEX
  5
729
100
AcDbEntity
  8
199
100
AcDbVertex
100
AcDb2dVertex
 42
0.0
 10
-1.4084715E+02
 20
2.0863598E+01
 70
0
  0
VERTEX
  5
72a
100
AcDbEntity
  8
199
100
AcDbVertex
100
AcDb2dVertex
 42
0.0
 10
-1.4084715E+02
 20
2.7864082E+01
 70
0
  0
SEQEND
  5
72b
100
AcDbEntity
  0
POLYLINE
  5
72c
100
AcDbEntity
  8
199
100
AcDb2dPolyline
  6
CONTINUOUS
 62
2
 66
1
 40
2.0E-01
 41
2.0E-01
 70
0
  0
VERTEX
  5
72d
100
AcDbEntity
  8
199
100
AcDbVertex
100
AcDb2dVertex
 42
0.0
 10
-1.3384667E+02
 20
2.0863598E+01
 70
0
  0
VERTEX
  5
72e
100
AcDbEntity
  8
199
100
AcDbVertex
100
AcDb2dVertex
 42
0.0
 10
-1.3384667E+02
 20
2.7864082E+01
 70
0
  0
SEQEND
  5
72f
100
AcDbEntity
  0
POLYLINE
  5
730
100
AcDbEntity
  8
199
100
AcDb2dPolyline
  6
CONTINUOUS
 62
2
 66
1
 40
2.0E-01
 41
2.0E-01
 70
0
  0
VERTEX
  5
731
100
AcDbEntity
  8
199
100
AcDbVertex
100
AcDb2dVertex
 42
0.0
 10
-1.6784746E+02
 20
2.6308232E+01
 70
0
  0
VERTEX
  5
732
100
AcDbEntity
  8
199
100
AcDbVertex
100
AcDb2dVertex
 42
0.0
 10
-1.6434721E+02
 20
2.0863598E+01
 70
0
  0
SEQEND
  5
733
100
AcDbEntity
  0
POLYLINE
  5
734
100
AcDbEntity
  8
199
100
AcDb2dPolyline
  6
CONTINUOUS
 62
2
 66
1
 40
2.0E-01
 41
2.0E-01
 70
0
  0
VERTEX
  5
735
100
AcDbEntity
  8
199
100
AcDbVertex
100
AcDb2dVertex
 42
0.0
 10
-1.6784746E+02
 20
2.0863598E+01
 70
0
  0
VERTEX
  5
736
100
AcDbEntity
  8
199
100
AcDbVertex
100
AcDb2dVertex
 42
0.0
 10
-1.6784746E+02
 20
2.6308232E+01
 70
0
  0
SEQEND
  5
737
100
AcDbEntity
  0
POLYLINE
  5
738
100
AcDbEntity
  8
199
100
AcDb2dPolyline
  6
CONTINUOUS
 62
2
 66
1
 40
2.0E-01
 41
2.0E-01
 70
0
  0
VERTEX
  5
739
100
AcDbEntity
  8
199
100
AcDbVertex
100
AcDb2dVertex
 42
0.0
 10
-1.6765823E+02
 20
2.7864082E+01
 70
0
  0
VERTEX
  5
73a
100
AcDbEntity
  8
199
100
AcDbVertex
100
AcDb2dVertex
 42
0.0
 10
-1.6434721E+02
 20
2.2712957E+01
 70
0
  0
SEQEND
  5
73b
100
AcDbEntity
  0
POLYLINE
  5
73c
100
AcDbEntity
  8
199
100
AcDb2dPolyline
  6
CONTINUOUS
 62
2
 66
1
 40
2.0E-01
 41
2.0E-01
 70
0
  0
VERTEX
  5
73d
100
AcDbEntity
  8
199
100
AcDbVertex
100
AcDb2dVertex
 42
0.0
 10
-1.6334727E+02
 20
2.0863598E+01
 70
0
  0
VERTEX
  5
73e
100
AcDbEntity
  8
199
100
AcDbVertex
100
AcDb2dVertex
 42
0.0
 10
-1.6334727E+02
 20
2.7864082E+01
 70
0
  0
SEQEND
  5
73f
100
AcDbEntity
  0
POLYLINE
  5
740
100
AcDbEntity
  8
199
100
AcDb2dPolyline
  6
CONTINUOUS
 62
2
 66
1
 40
2.0E-01
 41
2.0E-01
 70
0
  0
VERTEX
  5
741
100
AcDbEntity
  8
199
100
AcDbVertex
100
AcDb2dVertex
 42
0.0
 10
-1.5884707E+02
 20
2.0863598E+01
 70
0
  0
VERTEX
  5
742
100
AcDbEntity
  8
199
100
AcDbVertex
100
AcDb2dVertex
 42
0.0
 10
-1.5884707E+02
 20
2.7864082E+01
 70
0
  0
SEQEND
  5
743
100
AcDbEntity
  0
POLYLINE
  5
744
100
AcDbEntity
  8
199
100
AcDb2dPolyline
  6
CONTINUOUS
 62
2
 66
1
 40
2.0E-01
 41
2.0E-01
 70
0
  0
VERTEX
  5
745
100
AcDbEntity
  8
199
100
AcDbVertex
100
AcDb2dVertex
 42
0.0
 10
-1.3284672E+02
 20
2.0863598E+01
 70
0
  0
VERTEX
  5
746
100
AcDbEntity
  8
199
100
AcDbVertex
100
AcDb2dVertex
 42
0.0
 10
-1.3284672E+02
 20
2.3864286E+01
 70
0
  0
SEQEND
  5
747
100
AcDbEntity
  0
TEXT
  5
748
100
AcDbEntity
  8
199
100
AcDbText
  6
CONTINUOUS
 62
1
 10
-1.7750566E+02
 20
5.5511768E+01
 40
2.500293
  1
Title:
100
AcDbText
  0
TEXT
  5
749
100
AcDbEntity
  8
199
100
AcDbText
  6
CONTINUOUS
 62
5
 10
-1.5894816E+02
 20
5.5100519E+01
 40
4.0
  1
X
100
AcDbText
  0
TEXT
  5
74a
100
AcDbEntity
  8
199
100
AcDbText
  6
CONTINUOUS
 62
3
 10
-1.5599457E+02
 20
6.5243098E+01
 40
3.500242
  1
LHCB VERTEX DETECTOR
100
AcDbText
  0
TEXT
  5
74b
100
AcDbEntity
  8
199
100
AcDbText
  6
CONTINUOUS
 62
1
 10
-1.7750566E+02
 20
6.5747698E+01
 40
2.500293
  1
Project:
100
AcDbText
  0
POLYLINE
  5
74c
100
AcDbEntity
  8
199
100
AcDb2dPolyline
  6
CONTINUOUS
 62
5
 66
1
 40
4.0E-01
 41
4.0E-01
 70
0
  0
VERTEX
  5
74d
100
AcDbEntity
  8
199
100
AcDbVertex
100
AcDb2dVertex
 42
0.0
 10
-5.299982E+01
 20
2.6001197E+01
 70
0
  0
VERTEX
  5
74e
100
AcDbEntity
  8
199
100
AcDbVertex
100
AcDb2dVertex
 42
0.0
 10
0.0
 20
2.6001197E+01
 70
0
  0
SEQEND
  5
74f
100
AcDbEntity
  0
POLYLINE
  5
750
100
AcDbEntity
  8
199
100
AcDb2dPolyline
  6
CONTINUOUS
 62
3
 66
1
 40
3.0E-01
 41
3.0E-01
 70
0
  0
VERTEX
  5
751
100
AcDbEntity
  8
199
100
AcDbVertex
100
AcDb2dVertex
 42
0.0
 10
-6.7999896E+01
 20
4.2001222E+01
 70
0
  0
VERTEX
  5
752
100
AcDbEntity
  8
199
100
AcDbVertex
100
AcDb2dVertex
 42
0.0
 10
0.0
 20
4.2001222E+01
 70
0
  0
SEQEND
  5
753
100
AcDbEntity
  0
POLYLINE
  5
754
100
AcDbEntity
  8
199
100
AcDb2dPolyline
  6
CONTINUOUS
 62
3
 66
1
 40
2.0E-01
 41
2.0E-01
 70
0
  0
VERTEX
  5
755
100
AcDbEntity
  8
199
100
AcDbVertex
100
AcDb2dVertex
 42
0.0
 10
-6.7999896E+01
 20
3.4000789E+01
 70
0
  0
VERTEX
  5
756
100
AcDbEntity
  8
199
100
AcDbVertex
100
AcDb2dVertex
 42
0.0
 10
-6.7999896E+01
 20
3.4000789E+01
 70
0
  0
SEQEND
  5
757
100
AcDbEntity
  0
POLYLINE
  5
758
100
AcDbEntity
  8
199
100
AcDb2dPolyline
  6
CONTINUOUS
 62
3
 66
1
 40
2.0E-01
 41
2.0E-01
 70
0
  0
VERTEX
  5
759
100
AcDbEntity
  8
199
100
AcDbVertex
100
AcDb2dVertex
 42
0.0
 10
-4.300033E+01
 20
2.6001197E+01
 70
0
  0
VERTEX
  5
75a
100
AcDbEntity
  8
199
100
AcDbVertex
100
AcDb2dVertex
 42
0.0
 10
-4.300033E+01
 20
4.2001222E+01
 70
0
  0
SEQEND
  5
75b
100
AcDbEntity
  0
POLYLINE
  5
75c
100
AcDbEntity
  8
199
100
AcDb2dPolyline
  6
CONTINUOUS
 62
3
 66
1
 40
2.0E-01
 41
2.0E-01
 70
0
  0
VERTEX
  5
75d
100
AcDbEntity
  8
199
100
AcDbVertex
100
AcDb2dVertex
 42
0.0
 10
-1.7999923E+01
 20
2.6001197E+01
 70
0
  0
VERTEX
  5
75e
100
AcDbEntity
  8
199
100
AcDbVertex
100
AcDb2dVertex
 42
0.0
 10
-1.7999923E+01
 20
4.2001222E+01
 70
0
  0
SEQEND
  5
75f
100
AcDbEntity
  0
TEXT
  5
760
100
AcDbEntity
  8
199
100
AcDbText
  6
CONTINUOUS
 62
3
 10
-6.804531E+01
 20
2.7323249E+01
 40
2.500293
  1
ISO-2768-mK-E
 41
7.5983855E-01
100
AcDbText
  0
TEXT
  5
761
100
AcDbEntity
  8
199
100
AcDbText
  6
CONTINUOUS
 62
3
 10
-4.0572363E+01
 20
2.7323249E+01
 40
2.500293
  1
ISO-8015-E
 41
7.9986546E-01
100
AcDbText
  0
TEXT
  5
762
100
AcDbEntity
  8
199
100
AcDbText
  6
CONTINUOUS
 62
1
 10
-4.2272865E+01
 20
3.9489155E+01
 40
1.79974
  1
Geometrical tolerances
 41
6.0E-01
100
AcDbText
  0
TEXT
  5
763
100
AcDbEntity
  8
199
100
AcDbText
  6
CONTINUOUS
 62
1
 10
-3.5115114E+01
 20
3.6797955E+01
 40
1.79974
  1
unless 
 41
7.5E-01
100
AcDbText
  0
TEXT
  5
764
100
AcDbEntity
  8
199
100
AcDbText
  6
CONTINUOUS
 62
1
 10
-4.1861616E+01
 20
3.4088253E+01
 40
1.79974
  1
otherwise stated 
 41
7.5E-01
100
AcDbText
  0
TEXT
  5
765
100
AcDbEntity
  8
199
100
AcDbText
  6
CONTINUOUS
 62
1
 10
-3.8497616E+01
 20
3.1397053E+01
 40
1.79974
  1
according to
 41
7.5E-01
100
AcDbText
  0
TEXT
  5
766
100
AcDbEntity
  8
199
100
AcDbText
  6
CONTINUOUS
 62
3
 10
-1.7061367E+01
 20
2.7323249E+01
 40
2.500293
  1
DIN 1302
 41
7.9986546E-01
100
AcDbText
  0
TEXT
  5
767
100
AcDbEntity
  8
199
100
AcDbText
  6
CONTINUOUS
 62
1
 10
-1.4819261E+01
 20
3.9489155E+01
 40
1.79974
  1
Roughness
 41
7.5E-01
100
AcDbText
  0
TEXT
  5
768
100
AcDbEntity
  8
199
100
AcDbText
  6
CONTINUOUS
 62
1
 10
-1.3473661E+01
 20
3.6797955E+01
 40
1.79974
  1
unless 
 41
7.5E-01
100
AcDbText
  0
TEXT
  5
769
100
AcDbEntity
  8
199
100
AcDbText
  6
CONTINUOUS
 62
1
 10
-1.7024363E+01
 20
3.4088253E+01
 40
1.79974
  1
otherwise stated 
 41
5.5E-01
100
AcDbText
  0
TEXT
  5
76a
100
AcDbEntity
  8
199
100
AcDbText
  6
CONTINUOUS
 62
1
 10
-1.6594612E+01
 20
3.1397053E+01
 40
1.79974
  1
according to
 41
7.0E-01
100
AcDbText
  0
TEXT
  5
76b
100
AcDbEntity
  8
199
100
AcDbText
  6
CONTINUOUS
 62
1
 10
-6.754071E+01
 20
3.9489155E+01
 40
1.79974
  1
General tolerances
 41
7.5E-01
100
AcDbText
  0
TEXT
  5
76c
100
AcDbEntity
  8
199
100
AcDbText
  6
CONTINUOUS
 62
1
 10
-6.0120567E+01
 20
3.6797955E+01
 40
1.79974
  1
unless 
 41
7.5E-01
100
AcDbText
  0
TEXT
  5
76d
100
AcDbEntity
  8
199
100
AcDbText
  6
CONTINUOUS
 62
1
 10
-6.686791E+01
 20
3.4088253E+01
 40
1.79974
  1
otherwise stated 
 41
7.5E-01
100
AcDbText
  0
TEXT
  5
76e
100
AcDbEntity
  8
199
100
AcDbText
  6
CONTINUOUS
 62
1
 10
-6.3484567E+01
 20
3.1397053E+01
 40
1.79974
  1
according to
 41
7.5E-01
100
AcDbText
  0
TEXT
  5
76f
100
AcDbEntity
  8
199
100
AcDbText
  6
CONTINUOUS
 62
1
 10
-6.4924359E+01
 20
7.362955
 40
1.79974
  1
 
100
AcDbText
  0
TEXT
  5
770
100
AcDbEntity
  8
199
100
AcDbText
  6
CONTINUOUS
 62
1
 10
-1.7832776E+02
 20
1.2253641E+01
 40
1.9
  1
NATIONAL INSTITUTE FOR NUCLEAR PHYSICS,
 41
7.9983179E-01
100
AcDbText
  0
TEXT
  5
771
100
AcDbEntity
  8
199
100
AcDbText
  6
CONTINUOUS
 62
1
 10
-1.6655519E+02
 20
8.926607
 40
1.9
  1
AND HIGH ENERGY PHYSICS
 41
7.9983179E-01
100
AcDbText
  0
TEXT
  5
772
100
AcDbEntity
  8
199
100
AcDbText
  6
CONTINUOUS
 62
1
 10
-1.7909554E+02
 20
5.599574
 40
2.0
  1
P.O.41882,1009 DB Amsterdam,The Netherlands
 41
7.0016821E-01
100
AcDbText
  0
POLYLINE
  5
773
100
AcDbEntity
  8
199
100
AcDb2dPolyline
  6
CONTINUOUS
 62
5
 66
1
 40
4.0E-01
 41
4.0E-01
 70
0
  0
VERTEX
  5
774
100
AcDbEntity
  8
199
100
AcDbVertex
100
AcDb2dVertex
 42
0.0
 10
-1.8000007E+02
 20
8.8000558E+01
 70
0
  0
VERTEX
  5
775
100
AcDbEntity
  8
199
100
AcDbVertex
100
AcDb2dVertex
 42
0.0
 10
-1.8000007E+02
 20
8.0000966E+01
 70
0
  0
SEQEND
  5
776
100
AcDbEntity
  0
POLYLINE
  5
777
100
AcDbEntity
  8
199
100
AcDb2dPolyline
  6
CONTINUOUS
 62
2
 66
1
 40
2.0E-01
 41
2.0E-01
 70
0
  0
VERTEX
  5
778
100
AcDbEntity
  8
199
100
AcDbVertex
100
AcDb2dVertex
 42
0.0
 10
-1.5695146E+02
 20
3.1225559E+01
 70
0
  0
VERTEX
  5
779
100
AcDbEntity
  8
199
100
AcDbVertex
100
AcDb2dVertex
 42
0.0
 10
-1.4934714E+02
 20
2.8690785E+01
 70
0
  0
SEQEND
  5
77a
100
AcDbEntity
  0
POLYLINE
  5
77b
100
AcDbEntity
  8
199
100
AcDb2dPolyline
  6
CONTINUOUS
 62
2
 66
1
 40
2.0E-01
 41
2.0E-01
 70
0
  0
VERTEX
  5
77c
100
AcDbEntity
  8
199
100
AcDbVertex
100
AcDb2dVertex
 42
0.0
 10
-1.5695146E+02
 20
1.7502121E+01
 70
0
  0
VERTEX
  5
77d
100
AcDbEntity
  8
199
100
AcDbVertex
100
AcDb2dVertex
 42
0.0
 10
-1.4934714E+02
 20
2.0036895E+01
 70
0
  0
SEQEND
  5
77e
100
AcDbEntity
  0
POLYLINE
  5
77f
100
AcDbEntity
  8
199
100
AcDb2dPolyline
  6
CONTINUOUS
 62
2
 66
1
 40
2.0E-01
 41
2.0E-01
 70
0
  0
VERTEX
  5
780
100
AcDbEntity
  8
199
100
AcDbVertex
100
AcDb2dVertex
 42
0.0
 10
-1.3834686E+02
 20
2.3864286E+01
 70
0
  0
VERTEX
  5
781
100
AcDbEntity
  8
199
100
AcDbVertex
100
AcDb2dVertex
 42
0.0
 10
-1.3834686E+02
 20
2.4864235E+01
 70
0
  0
SEQEND
  5
782
100
AcDbEntity
  0
POLYLINE
  5
783
100
AcDbEntity
  8
199
100
AcDb2dPolyline
  6
CONTINUOUS
 62
2
 66
1
 40
2.0E-01
 41
2.0E-01
 70
0
  0
VERTEX
  5
784
100
AcDbEntity
  8
199
100
AcDbVertex
100
AcDb2dVertex
 42
0.0
 10
-1.3634696E+02
 20
2.6864133E+01
 70
0
  0
VERTEX
  5
785
100
AcDbEntity
  8
199
100
AcDbVertex
100
AcDb2dVertex
 42
0.0
 10
-1.3634696E+02
 20
2.7864082E+01
 70
0
  0
SEQEND
  5
786
100
AcDbEntity
  0
POLYLINE
  5
787
100
AcDbEntity
  8
199
100
AcDb2dPolyline
  6
CONTINUOUS
 62
2
 66
1
 40
2.0E-01
 41
2.0E-01
 70
0
  0
VERTEX
  5
788
100
AcDbEntity
  8
199
100
AcDbVertex
100
AcDb2dVertex
 42
0.0
 10
-1.3134722E+02
 20
2.3864286E+01
 70
0
  0
VERTEX
  5
789
100
AcDbEntity
  8
199
100
AcDbVertex
100
AcDb2dVertex
 42
0.0
 10
-1.3134722E+02
 20
2.4864235E+01
 70
0
  0
SEQEND
  5
78a
100
AcDbEntity
  0
POLYLINE
  5
78b
100
AcDbEntity
  8
199
100
AcDb2dPolyline
  6
CONTINUOUS
 62
2
 66
1
 40
2.0E-01
 41
2.0E-01
 70
0
  0
VERTEX
  5
78c
100
AcDbEntity
  8
199
100
AcDbVertex
100
AcDb2dVertex
 42
0.0
 10
-1.3284672E+02
 20
2.4864235E+01
 70
0
  0
VERTEX
  5
78d
100
AcDbEntity
  8
199
100
AcDbVertex
100
AcDb2dVertex
 42
0.0
 10
-1.3284672E+02
 20
2.6864133E+01
 70
0
  0
SEQEND
  5
78e
100
AcDbEntity
  0
POLYLINE
  5
78f
100
AcDbEntity
  8
199
100
AcDb2dPolyline
  6
CONTINUOUS
 62
2
 66
1
 40
2.0E-01
 41
2.0E-01
 70
0
  0
VERTEX
  5
790
100
AcDbEntity
  8
199
100
AcDbVertex
100
AcDb2dVertex
 42
0.0
 10
-1.2934732E+02
 20
2.6864133E+01
 70
0
  0
VERTEX
  5
791
100
AcDbEntity
  8
199
100
AcDbVertex
100
AcDb2dVertex
 42
0.0
 10
-1.2934732E+02
 20
2.7864082E+01
 70
0
  0
SEQEND
  5
792
100
AcDbEntity
  0
POLYLINE
  5
793
100
AcDbEntity
  8
199
100
AcDb2dPolyline
  6
CONTINUOUS
 62
5
 66
1
 40
4.0E-01
 41
4.0E-01
 70
0
  0
VERTEX
  5
794
100
AcDbEntity
  8
199
100
AcDbVertex
100
AcDb2dVertex
 42
0.0
 10
-1.8000007E+02
 20
8.0000966E+01
 70
0
  0
VERTEX
  5
795
100
AcDbEntity
  8
199
100
AcDbVertex
100
AcDb2dVertex
 42
0.0
 10
-1.8000007E+02
 20
0.0
 70
0
  0
SEQEND
  5
796
100
AcDbEntity
  0
POLYLINE
  5
797
100
AcDbEntity
  8
199
100
AcDb2dPolyline
  6
CONTINUOUS
 62
3
 66
1
 40
2.0E-01
 41
2.0E-01
 70
0
  0
VERTEX
  5
798
100
AcDbEntity
  8
199
100
AcDbVertex
100
AcDb2dVertex
 42
0.0
 10
-1.6799984E+02
 20
8.0000966E+01
 70
0
  0
VERTEX
  5
799
100
AcDbEntity
  8
199
100
AcDbVertex
100
AcDb2dVertex
 42
0.0
 10
-1.6799984E+02
 20
8.8000558E+01
 70
0
  0
SEQEND
  5
79a
100
AcDbEntity
  0
POLYLINE
  5
79b
100
AcDbEntity
  8
199
100
AcDb2dPolyline
  6
CONTINUOUS
 62
3
 66
1
 40
2.0E-01
 41
2.0E-01
 70
0
  0
VERTEX
  5
79c
100
AcDbEntity
  8
199
100
AcDbVertex
100
AcDb2dVertex
 42
0.0
 10
-1.5600045E+02
 20
8.0000966E+01
 70
0
  0
VERTEX
  5
79d
100
AcDbEntity
  8
199
100
AcDbVertex
100
AcDb2dVertex
 42
0.0
 10
-1.5600045E+02
 20
8.8000558E+01
 70
0
  0
SEQEND
  5
79e
100
AcDbEntity
  0
POLYLINE
  5
79f
100
AcDbEntity
  8
199
100
AcDb2dPolyline
  6
CONTINUOUS
 62
3
 66
1
 40
2.0E-01
 41
2.0E-01
 70
0
  0
VERTEX
  5
7a0
100
AcDbEntity
  8
199
100
AcDbVertex
100
AcDb2dVertex
 42
0.0
 10
-1.0099989E+02
 20
8.0000966E+01
 70
0
  0
VERTEX
  5
7a1
100
AcDbEntity
  8
199
100
AcDbVertex
100
AcDb2dVertex
 42
0.0
 10
-1.0099989E+02
 20
8.8000558E+01
 70
0
  0
SEQEND
  5
7a2
100
AcDbEntity
  0
POLYLINE
  5
7a3
100
AcDbEntity
  8
199
100
AcDb2dPolyline
  6
CONTINUOUS
 62
3
 66
1
 40
2.0E-01
 41
2.0E-01
 70
0
  0
VERTEX
  5
7a4
100
AcDbEntity
  8
199
100
AcDbVertex
100
AcDb2dVertex
 42
0.0
 10
-6.7999896E+01
 20
8.0000966E+01
 70
0
  0
VERTEX
  5
7a5
100
AcDbEntity
  8
199
100
AcDbVertex
100
AcDb2dVertex
 42
0.0
 10
-6.7999896E+01
 20
8.8000558E+01
 70
0
  0
SEQEND
  5
7a6
100
AcDbEntity
  0
POLYLINE
  5
7a7
100
AcDbEntity
  8
199
100
AcDb2dPolyline
  6
CONTINUOUS
 62
3
 66
1
 40
2.0E-01
 41
2.0E-01
 70
0
  0
VERTEX
  5
7a8
100
AcDbEntity
  8
199
100
AcDbVertex
100
AcDb2dVertex
 42
0.0
 10
-3.4999897E+01
 20
8.0000966E+01
 70
0
  0
VERTEX
  5
7a9
100
AcDbEntity
  8
199
100
AcDbVertex
100
AcDb2dVertex
 42
0.0
 10
-3.4999897E+01
 20
8.4000762E+01
 70
0
  0
SEQEND
  5
7aa
100
AcDbEntity
  0
POLYLINE
  5
7ab
100
AcDbEntity
  8
199
100
AcDb2dPolyline
  6
CONTINUOUS
 62
3
 66
1
 40
2.0E-01
 41
2.0E-01
 70
0
  0
VERTEX
  5
7ac
100
AcDbEntity
  8
199
100
AcDbVertex
100
AcDb2dVertex
 42
0.0
 10
-3.4999897E+01
 20
8.4000762E+01
 70
0
  0
VERTEX
  5
7ad
100
AcDbEntity
  8
199
100
AcDbVertex
100
AcDb2dVertex
 42
0.0
 10
-3.4999897E+01
 20
8.8000558E+01
 70
0
  0
SEQEND
  5
7ae
100
AcDbEntity
  0
POLYLINE
  5
7af
100
AcDbEntity
  8
199
100
AcDb2dPolyline
  6
CONTINUOUS
 62
2
 66
1
 40
2.0E-01
 41
2.0E-01
 70
0
  0
VERTEX
  5
7b0
100
AcDbEntity
  8
199
100
AcDbVertex
100
AcDb2dVertex
 42
0.0
 10
-1.6884741E+02
 20
2.7864082E+01
 70
0
  0
VERTEX
  5
7b1
100
AcDbEntity
  8
199
100
AcDbVertex
100
AcDb2dVertex
 42
0.0
 10
-1.6765823E+02
 20
2.7864082E+01
 70
0
  0
SEQEND
  5
7b2
100
AcDbEntity
  0
POLYLINE
  5
7b3
100
AcDbEntity
  8
199
100
AcDb2dPolyline
  6
CONTINUOUS
 62
2
 66
1
 40
2.0E-01
 41
2.0E-01
 70
0
  0
VERTEX
  5
7b4
100
AcDbEntity
  8
199
100
AcDbVertex
100
AcDb2dVertex
 42
0.0
 10
-1.6434721E+02
 20
2.7864082E+01
 70
0
  0
VERTEX
  5
7b5
100
AcDbEntity
  8
199
100
AcDbVertex
100
AcDb2dVertex
 42
0.0
 10
-1.6334727E+02
 20
2.7864082E+01
 70
0
  0
SEQEND
  5
7b6
100
AcDbEntity
  0
POLYLINE
  5
7b7
100
AcDbEntity
  8
199
100
AcDb2dPolyline
  6
CONTINUOUS
 62
2
 66
1
 40
2.0E-01
 41
2.0E-01
 70
0
  0
VERTEX
  5
7b8
100
AcDbEntity
  8
199
100
AcDbVertex
100
AcDb2dVertex
 42
0.0
 10
-1.5984702E+02
 20
2.7864082E+01
 70
0
  0
VERTEX
  5
7b9
100
AcDbEntity
  8
199
100
AcDbVertex
100
AcDb2dVertex
 42
0.0
 10
-1.5884707E+02
 20
2.7864082E+01
 70
0
  0
SEQEND
  5
7ba
100
AcDbEntity
  0
POLYLINE
  5
7bb
100
AcDbEntity
  8
199
100
AcDb2dPolyline
  6
CONTINUOUS
 62
2
 66
1
 40
2.0E-01
 41
2.0E-01
 70
0
  0
VERTEX
  5
7bc
100
AcDbEntity
  8
199
100
AcDbVertex
100
AcDb2dVertex
 42
0.0
 10
-1.4867854E+02
 20
2.8298879E+01
 70
0
  0
VERTEX
  5
7bd
100
AcDbEntity
  8
199
100
AcDbVertex
100
AcDb2dVertex
 42
0.0
 10
-1.4699738E+02
 20
2.8298879E+01
 70
0
  0
SEQEND
  5
7be
100
AcDbEntity
  0
POLYLINE
  5
7bf
100
AcDbEntity
  8
199
100
AcDb2dPolyline
  6
CONTINUOUS
 62
2
 66
1
 40
2.0E-01
 41
2.0E-01
 70
0
  0
VERTEX
  5
7c0
100
AcDbEntity
  8
199
100
AcDbVertex
100
AcDb2dVertex
 42
0.0
 10
-1.4419601E+02
 20
2.8298879E+01
 70
0
  0
VERTEX
  5
7c1
100
AcDbEntity
  8
199
100
AcDbVertex
100
AcDb2dVertex
 42
0.0
 10
-1.425157E+02
 20
2.8298879E+01
 70
0
  0
SEQEND
  5
7c2
100
AcDbEntity
  0
POLYLINE
  5
7c3
100
AcDbEntity
  8
199
100
AcDb2dPolyline
  6
CONTINUOUS
 62
2
 66
1
 40
2.0E-01
 41
2.0E-01
 70
0
  0
VERTEX
  5
7c4
100
AcDbEntity
  8
199
100
AcDbVertex
100
AcDb2dVertex
 42
0.0
 10
-1.4084715E+02
 20
2.7864082E+01
 70
0
  0
VERTEX
  5
7c5
100
AcDbEntity
  8
199
100
AcDbVertex
100
AcDb2dVertex
 42
0.0
 10
-1.3634696E+02
 20
2.7864082E+01
 70
0
  0
SEQEND
  5
7c6
100
AcDbEntity
  0
POLYLINE
  5
7c7
100
AcDbEntity
  8
199
100
AcDb2dPolyline
  6
CONTINUOUS
 62
2
 66
1
 40
2.0E-01
 41
2.0E-01
 70
0
  0
VERTEX
  5
7c8
100
AcDbEntity
  8
199
100
AcDbVertex
100
AcDb2dVertex
 42
0.0
 10
-1.3384667E+02
 20
2.7864082E+01
 70
0
  0
VERTEX
  5
7c9
100
AcDbEntity
  8
199
100
AcDbVertex
100
AcDb2dVertex
 42
0.0
 10
-1.2934732E+02
 20
2.7864082E+01
 70
0
  0
SEQEND
  5
7ca
100
AcDbEntity
  0
POLYLINE
  5
7cb
100
AcDbEntity
  8
199
100
AcDb2dPolyline
  6
CONTINUOUS
 62
2
 66
1
 40
2.0E-01
 41
2.0E-01
 70
0
  0
VERTEX
  5
7cc
100
AcDbEntity
  8
199
100
AcDbVertex
100
AcDb2dVertex
 42
0.0
 10
-1.2934732E+02
 20
2.6864133E+01
 70
0
  0
VERTEX
  5
7cd
100
AcDbEntity
  8
199
100
AcDbVertex
100
AcDb2dVertex
 42
0.0
 10
-1.3284672E+02
 20
2.6864133E+01
 70
0
  0
SEQEND
  5
7ce
100
AcDbEntity
  0
POLYLINE
  5
7cf
100
AcDbEntity
  8
199
100
AcDb2dPolyline
  6
CONTINUOUS
 62
2
 66
1
 40
2.0E-01
 41
2.0E-01
 70
0
  0
VERTEX
  5
7d0
100
AcDbEntity
  8
199
100
AcDbVertex
100
AcDb2dVertex
 42
0.0
 10
-1.3284672E+02
 20
2.4864235E+01
 70
0
  0
VERTEX
  5
7d1
100
AcDbEntity
  8
199
100
AcDbVertex
100
AcDb2dVertex
 42
0.0
 10
-1.3134722E+02
 20
2.4864235E+01
 70
0
  0
SEQEND
  5
7d2
100
AcDbEntity
  0
POLYLINE
  5
7d3
100
AcDbEntity
  8
199
100
AcDb2dPolyline
  6
CONTINUOUS
 62
2
 66
1
 40
2.0E-01
 41
2.0E-01
 70
0
  0
VERTEX
  5
7d4
100
AcDbEntity
  8
199
100
AcDbVertex
100
AcDb2dVertex
 42
0.0
 10
-1.3134722E+02
 20
2.3864286E+01
 70
0
  0
VERTEX
  5
7d5
100
AcDbEntity
  8
199
100
AcDbVertex
100
AcDb2dVertex
 42
0.0
 10
-1.3284672E+02
 20
2.3864286E+01
 70
0
  0
SEQEND
  5
7d6
100
AcDbEntity
  0
POLYLINE
  5
7d7
100
AcDbEntity
  8
199
100
AcDb2dPolyline
  6
CONTINUOUS
 62
2
 66
1
 40
2.0E-01
 41
2.0E-01
 70
0
  0
VERTEX
  5
7d8
100
AcDbEntity
  8
199
100
AcDbVertex
100
AcDb2dVertex
 42
0.0
 10
-1.3284672E+02
 20
2.0863598E+01
 70
0
  0
VERTEX
  5
7d9
100
AcDbEntity
  8
199
100
AcDbVertex
100
AcDb2dVertex
 42
0.0
 10
-1.3384667E+02
 20
2.0863598E+01
 70
0
  0
SEQEND
  5
7da
100
AcDbEntity
  0
POLYLINE
  5
7db
100
AcDbEntity
  8
199
100
AcDb2dPolyline
  6
CONTINUOUS
 62
2
 66
1
 40
2.0E-01
 41
2.0E-01
 70
0
  0
VERTEX
  5
7dc
100
AcDbEntity
  8
199
100
AcDbVertex
100
AcDb2dVertex
 42
0.0
 10
-1.398472E+02
 20
2.4864235E+01
 70
0
  0
VERTEX
  5
7dd
100
AcDbEntity
  8
199
100
AcDbVertex
100
AcDb2dVertex
 42
0.0
 10
-1.398472E+02
 20
2.6864133E+01
 70
0
  0
SEQEND
  5
7de
100
AcDbEntity
  0
POLYLINE
  5
7df
100
AcDbEntity
  8
199
100
AcDb2dPolyline
  6
CONTINUOUS
 62
2
 66
1
 40
2.0E-01
 41
2.0E-01
 70
0
  0
VERTEX
  5
7e0
100
AcDbEntity
  8
199
100
AcDbVertex
100
AcDb2dVertex
 42
0.0
 10
-1.3634696E+02
 20
2.6864133E+01
 70
0
  0
VERTEX
  5
7e1
100
AcDbEntity
  8
199
100
AcDbVertex
100
AcDb2dVertex
 42
0.0
 10
-1.398472E+02
 20
2.6864133E+01
 70
0
  0
SEQEND
  5
7e2
100
AcDbEntity
  0
POLYLINE
  5
7e3
100
AcDbEntity
  8
199
100
AcDb2dPolyline
  6
CONTINUOUS
 62
2
 66
1
 40
2.0E-01
 41
2.0E-01
 70
0
  0
VERTEX
  5
7e4
100
AcDbEntity
  8
199
100
AcDbVertex
100
AcDb2dVertex
 42
0.0
 10
-1.398472E+02
 20
2.4864235E+01
 70
0
  0
VERTEX
  5
7e5
100
AcDbEntity
  8
199
100
AcDbVertex
100
AcDb2dVertex
 42
0.0
 10
-1.3834686E+02
 20
2.4864235E+01
 70
0
  0
SEQEND
  5
7e6
100
AcDbEntity
  0
POLYLINE
  5
7e7
100
AcDbEntity
  8
199
100
AcDb2dPolyline
  6
CONTINUOUS
 62
2
 66
1
 40
2.0E-01
 41
2.0E-01
 70
0
  0
VERTEX
  5
7e8
100
AcDbEntity
  8
199
100
AcDbVertex
100
AcDb2dVertex
 42
0.0
 10
-1.3634696E+02
 20
2.1863547E+01
 70
0
  0
VERTEX
  5
7e9
100
AcDbEntity
  8
199
100
AcDbVertex
100
AcDb2dVertex
 42
0.0
 10
-1.398472E+02
 20
2.1863547E+01
 70
0
  0
SEQEND
  5
7ea
100
AcDbEntity
  0
POLYLINE
  5
7eb
100
AcDbEntity
  8
199
100
AcDb2dPolyline
  6
CONTINUOUS
 62
2
 66
1
 40
2.0E-01
 41
2.0E-01
 70
0
  0
VERTEX
  5
7ec
100
AcDbEntity
  8
199
100
AcDbVertex
100
AcDb2dVertex
 42
0.0
 10
-1.398472E+02
 20
2.3863445E+01
 70
0
  0
VERTEX
  5
7ed
100
AcDbEntity
  8
199
100
AcDbVertex
100
AcDb2dVertex
 42
0.0
 10
-1.398472E+02
 20
2.1863547E+01
 70
0
  0
SEQEND
  5
7ee
100
AcDbEntity
  0
POLYLINE
  5
7ef
100
AcDbEntity
  8
199
100
AcDb2dPolyline
  6
CONTINUOUS
 62
2
 66
1
 40
2.0E-01
 41
2.0E-01
 70
0
  0
VERTEX
  5
7f0
100
AcDbEntity
  8
199
100
AcDbVertex
100
AcDb2dVertex
 42
0.0
 10
-1.398472E+02
 20
2.3863445E+01
 70
0
  0
VERTEX
  5
7f1
100
AcDbEntity
  8
199
100
AcDbVertex
100
AcDb2dVertex
 42
0.0
 10
-1.3834686E+02
 20
2.3863445E+01
 70
0
  0
SEQEND
  5
7f2
100
AcDbEntity
  0
POLYLINE
  5
7f3
100
AcDbEntity
  8
199
100
AcDb2dPolyline
  6
CONTINUOUS
 62
2
 66
1
 40
2.0E-01
 41
2.0E-01
 70
0
  0
VERTEX
  5
7f4
100
AcDbEntity
  8
199
100
AcDbVertex
100
AcDb2dVertex
 42
0.0
 10
-1.4084715E+02
 20
2.0863598E+01
 70
0
  0
VERTEX
  5
7f5
100
AcDbEntity
  8
199
100
AcDbVertex
100
AcDb2dVertex
 42
0.0
 10
-1.3634696E+02
 20
2.0863598E+01
 70
0
  0
SEQEND
  5
7f6
100
AcDbEntity
  0
POLYLINE
  5
7f7
100
AcDbEntity
  8
199
100
AcDb2dPolyline
  6
CONTINUOUS
 62
2
 66
1
 40
2.0E-01
 41
2.0E-01
 70
0
  0
VERTEX
  5
7f8
100
AcDbEntity
  8
199
100
AcDbVertex
100
AcDb2dVertex
 42
0.0
 10
-1.3634696E+02
 20
2.0863598E+01
 70
0
  0
VERTEX
  5
7f9
100
AcDbEntity
  8
199
100
AcDbVertex
100
AcDb2dVertex
 42
0.0
 10
-1.3634696E+02
 20
2.1863547E+01
 70
0
  0
SEQEND
  5
7fa
100
AcDbEntity
  0
POLYLINE
  5
7fb
100
AcDbEntity
  8
199
100
AcDb2dPolyline
  6
CONTINUOUS
 62
2
 66
1
 40
2.0E-01
 41
2.0E-01
 70
0
  0
VERTEX
  5
7fc
100
AcDbEntity
  8
199
100
AcDbVertex
100
AcDb2dVertex
 42
0.0
 10
-1.4419601E+02
 20
2.5203158E+01
 70
0
  0
VERTEX
  5
7fd
100
AcDbEntity
  8
199
100
AcDbVertex
100
AcDb2dVertex
 42
0.0
 10
-1.4699738E+02
 20
2.5203158E+01
 70
0
  0
SEQEND
  5
7fe
100
AcDbEntity
  0
POLYLINE
  5
7ff
100
AcDbEntity
  8
199
100
AcDb2dPolyline
  6
CONTINUOUS
 62
2
 66
1
 40
2.0E-01
 41
2.0E-01
 70
0
  0
VERTEX
  5
800
100
AcDbEntity
  8
199
100
AcDbVertex
100
AcDb2dVertex
 42
0.0
 10
-1.4699738E+02
 20
2.3523681E+01
 70
0
  0
VERTEX
  5
801
100
AcDbEntity
  8
199
100
AcDbVertex
100
AcDb2dVertex
 42
0.0
 10
-1.4419601E+02
 20
2.3523681E+01
 70
0
  0
SEQEND
  5
802
100
AcDbEntity
  0
POLYLINE
  5
803
100
AcDbEntity
  8
199
100
AcDb2dPolyline
  6
CONTINUOUS
 62
2
 66
1
 40
2.0E-01
 41
2.0E-01
 70
0
  0
VERTEX
  5
804
100
AcDbEntity
  8
199
100
AcDbVertex
100
AcDb2dVertex
 42
0.0
 10
-1.4419601E+02
 20
2.0428801E+01
 70
0
  0
VERTEX
  5
805
100
AcDbEntity
  8
199
100
AcDbVertex
100
AcDb2dVertex
 42
0.0
 10
-1.425157E+02
 20
2.0428801E+01
 70
0
  0
SEQEND
  5
806
100
AcDbEntity
  0
POLYLINE
  5
807
100
AcDbEntity
  8
199
100
AcDb2dPolyline
  6
CONTINUOUS
 62
2
 66
1
 40
2.0E-01
 41
2.0E-01
 70
0
  0
VERTEX
  5
808
100
AcDbEntity
  8
199
100
AcDbVertex
100
AcDb2dVertex
 42
0.0
 10
-1.4699738E+02
 20
2.0428801E+01
 70
0
  0
VERTEX
  5
809
100
AcDbEntity
  8
199
100
AcDbVertex
100
AcDb2dVertex
 42
0.0
 10
-1.4867854E+02
 20
2.0428801E+01
 70
0
  0
SEQEND
  5
80a
100
AcDbEntity
  0
POLYLINE
  5
80b
100
AcDbEntity
  8
199
100
AcDb2dPolyline
  6
CONTINUOUS
 62
2
 66
1
 40
2.0E-01
 41
2.0E-01
 70
0
  0
VERTEX
  5
80c
100
AcDbEntity
  8
199
100
AcDbVertex
100
AcDb2dVertex
 42
0.0
 10
-1.5884707E+02
 20
2.0863598E+01
 70
0
  0
VERTEX
  5
80d
100
AcDbEntity
  8
199
100
AcDbVertex
100
AcDb2dVertex
 42
0.0
 10
-1.5984702E+02
 20
2.0863598E+01
 70
0
  0
SEQEND
  5
80e
100
AcDbEntity
  0
POLYLINE
  5
80f
100
AcDbEntity
  8
199
100
AcDb2dPolyline
  6
CONTINUOUS
 62
2
 66
1
 40
2.0E-01
 41
2.0E-01
 70
0
  0
VERTEX
  5
810
100
AcDbEntity
  8
199
100
AcDbVertex
100
AcDb2dVertex
 42
0.0
 10
-1.6334727E+02
 20
2.0863598E+01
 70
0
  0
VERTEX
  5
811
100
AcDbEntity
  8
199
100
AcDbVertex
100
AcDb2dVertex
 42
0.0
 10
-1.6434721E+02
 20
2.0863598E+01
 70
0
  0
SEQEND
  5
812
100
AcDbEntity
  0
POLYLINE
  5
813
100
AcDbEntity
  8
199
100
AcDb2dPolyline
  6
CONTINUOUS
 62
2
 66
1
 40
2.0E-01
 41
2.0E-01
 70
0
  0
VERTEX
  5
814
100
AcDbEntity
  8
199
100
AcDbVertex
100
AcDb2dVertex
 42
0.0
 10
-1.6784746E+02
 20
2.0863598E+01
 70
0
  0
VERTEX
  5
815
100
AcDbEntity
  8
199
100
AcDbVertex
100
AcDb2dVertex
 42
0.0
 10
-1.6884741E+02
 20
2.0863598E+01
 70
0
  0
SEQEND
  5
816
100
AcDbEntity
  0
POLYLINE
  5
817
100
AcDbEntity
  8
199
100
AcDb2dPolyline
  6
CONTINUOUS
 62
2
 66
1
 40
2.0E-01
 41
2.0E-01
 70
0
  0
VERTEX
  5
818
100
AcDbEntity
  8
199
100
AcDbVertex
100
AcDb2dVertex
 42
0.0
 10
-1.5443662E+02
 20
2.8298879E+01
 70
0
  0
VERTEX
  5
819
100
AcDbEntity
  8
199
100
AcDbVertex
100
AcDb2dVertex
 42
0.0
 10
-1.5443662E+02
 20
2.5214425E+01
 70
0
  0
SEQEND
  5
81a
100
AcDbEntity
  0
POLYLINE
  5
81b
100
AcDbEntity
  8
199
100
AcDb2dPolyline
  6
CONTINUOUS
 62
2
 66
1
 40
2.0E-01
 41
2.0E-01
 70
0
  0
VERTEX
  5
81c
100
AcDbEntity
  8
199
100
AcDbVertex
100
AcDb2dVertex
 42
0.0
 10
-1.5443662E+02
 20
2.2950444E+01
 70
0
  0
VERTEX
  5
81d
100
AcDbEntity
  8
199
100
AcDbVertex
100
AcDb2dVertex
 42
0.0
 10
-1.5443662E+02
 20
2.0428801E+01
 70
0
  0
SEQEND
  5
81e
100
AcDbEntity
  0
POLYLINE
  5
81f
100
AcDbEntity
  8
199
100
AcDb2dPolyline
  6
CONTINUOUS
 62
2
 66
1
 40
2.0E-01
 41
2.0E-01
 70
0
  0
VERTEX
  5
820
100
AcDbEntity
  8
199
100
AcDbVertex
100
AcDb2dVertex
 42
0.0
 10
-1.5611778E+02
 20
2.0428801E+01
 70
0
  0
VERTEX
  5
821
100
AcDbEntity
  8
199
100
AcDbVertex
100
AcDb2dVertex
 42
0.0
 10
-1.5611778E+02
 20
2.8298879E+01
 70
0
  0
SEQEND
  5
822
100
AcDbEntity
  0
POLYLINE
  5
823
100
AcDbEntity
  8
199
100
AcDb2dPolyline
  6
CONTINUOUS
 62
2
 66
1
 40
2.0E-01
 41
2.0E-01
 70
0
  0
VERTEX
  5
824
100
AcDbEntity
  8
199
100
AcDbVertex
100
AcDb2dVertex
 42
0.0
 10
-1.5611778E+02
 20
2.8298879E+01
 70
0
  0
VERTEX
  5
825
100
AcDbEntity
  8
199
100
AcDbVertex
100
AcDb2dVertex
 42
0.0
 10
-1.5443662E+02
 20
2.8298879E+01
 70
0
  0
SEQEND
  5
826
100
AcDbEntity
  0
POLYLINE
  5
827
100
AcDbEntity
  8
199
100
AcDb2dPolyline
  6
CONTINUOUS
 62
2
 66
1
 40
2.0E-01
 41
2.0E-01
 70
0
  0
VERTEX
  5
828
100
AcDbEntity
  8
199
100
AcDbVertex
100
AcDb2dVertex
 42
0.0
 10
-1.5443662E+02
 20
2.0428801E+01
 70
0
  0
VERTEX
  5
829
100
AcDbEntity
  8
199
100
AcDbVertex
100
AcDb2dVertex
 42
0.0
 10
-1.5611778E+02
 20
2.0428801E+01
 70
0
  0
SEQEND
  5
82a
100
AcDbEntity
  0
POLYLINE
  5
82b
100
AcDbEntity
  8
199
100
AcDb2dPolyline
  6
CONTINUOUS
 62
2
 66
1
 40
2.0E-01
 41
2.0E-01
 70
0
  0
VERTEX
  5
82c
100
AcDbEntity
  8
199
100
AcDbVertex
100
AcDb2dVertex
 42
0.0
 10
-1.5170824E+02
 20
2.8298879E+01
 70
0
  0
VERTEX
  5
82d
100
AcDbEntity
  8
199
100
AcDbVertex
100
AcDb2dVertex
 42
0.0
 10
-1.4970562E+02
 20
2.8298879E+01
 70
0
  0
SEQEND
  5
82e
100
AcDbEntity
  0
POLYLINE
  5
82f
100
AcDbEntity
  8
199
100
AcDb2dPolyline
  6
CONTINUOUS
 62
2
 66
1
 40
2.0E-01
 41
2.0E-01
 70
0
  0
VERTEX
  5
830
100
AcDbEntity
  8
199
100
AcDbVertex
100
AcDb2dVertex
 42
0.0
 10
-1.5170824E+02
 20
2.8298879E+01
 70
0
  0
VERTEX
  5
831
100
AcDbEntity
  8
199
100
AcDbVertex
100
AcDb2dVertex
 42
0.0
 10
-1.5443662E+02
 20
2.5214425E+01
 70
0
  0
SEQEND
  5
832
100
AcDbEntity
  0
POLYLINE
  5
833
100
AcDbEntity
  8
199
100
AcDb2dPolyline
  6
CONTINUOUS
 62
2
 66
1
 40
2.0E-01
 41
2.0E-01
 70
0
  0
VERTEX
  5
834
100
AcDbEntity
  8
199
100
AcDbVertex
100
AcDb2dVertex
 42
0.0
 10
-1.4970562E+02
 20
2.8298879E+01
 70
0
  0
VERTEX
  5
835
100
AcDbEntity
  8
199
100
AcDbVertex
100
AcDb2dVertex
 42
0.0
 10
-1.5286688E+02
 20
2.4725048E+01
 70
0
  0
SEQEND
  5
836
100
AcDbEntity
  0
POLYLINE
  5
837
100
AcDbEntity
  8
199
100
AcDb2dPolyline
  6
CONTINUOUS
 62
2
 66
1
 40
2.0E-01
 41
2.0E-01
 70
0
  0
VERTEX
  5
838
100
AcDbEntity
  8
199
100
AcDbVertex
100
AcDb2dVertex
 42
0.0
 10
-1.5388351E+02
 20
2.3575738E+01
 70
0
  0
VERTEX
  5
839
100
AcDbEntity
  8
199
100
AcDbVertex
100
AcDb2dVertex
 42
0.0
 10
-1.5443662E+02
 20
2.2950444E+01
 70
0
  0
SEQEND
  5
83a
100
AcDbEntity
  0
POLYLINE
  5
83b
100
AcDbEntity
  8
199
100
AcDb2dPolyline
  6
CONTINUOUS
 62
2
 66
1
 40
2.0E-01
 41
2.0E-01
 70
0
  0
VERTEX
  5
83c
100
AcDbEntity
  8
199
100
AcDbVertex
100
AcDb2dVertex
 42
0.0
 10
-1.5156793E+02
 20
2.0428801E+01
 70
0
  0
VERTEX
  5
83d
100
AcDbEntity
  8
199
100
AcDbVertex
100
AcDb2dVertex
 42
0.0
 10
-1.4970562E+02
 20
2.0428801E+01
 70
0
  0
SEQEND
  5
83e
100
AcDbEntity
  0
POLYLINE
  5
83f
100
AcDbEntity
  8
199
100
AcDb2dPolyline
  6
CONTINUOUS
 62
2
 66
1
 40
2.0E-01
 41
2.0E-01
 70
0
  0
VERTEX
  5
840
100
AcDbEntity
  8
199
100
AcDbVertex
100
AcDb2dVertex
 42
0.0
 10
-1.4970562E+02
 20
2.0428801E+01
 70
0
  0
VERTEX
  5
841
100
AcDbEntity
  8
199
100
AcDbVertex
100
AcDb2dVertex
 42
0.0
 10
-1.5286688E+02
 20
2.4725048E+01
 70
0
  0
SEQEND
  5
842
100
AcDbEntity
  0
POLYLINE
  5
843
100
AcDbEntity
  8
199
100
AcDb2dPolyline
  6
CONTINUOUS
 62
2
 66
1
 40
2.0E-01
 41
2.0E-01
 70
0
  0
VERTEX
  5
844
100
AcDbEntity
  8
199
100
AcDbVertex
100
AcDb2dVertex
 42
0.0
 10
-1.5156793E+02
 20
2.0428801E+01
 70
0
  0
VERTEX
  5
845
100
AcDbEntity
  8
199
100
AcDbVertex
100
AcDb2dVertex
 42
0.0
 10
-1.5388351E+02
 20
2.3575738E+01
 70
0
  0
SEQEND
  5
846
100
AcDbEntity
  0
TEXT
  5
847
100
AcDbEntity
  8
199
100
AcDbText
  6
CONTINUOUS
 62
1
 10
-9.7741861E+01
 20
9.0773335E+01
 40
2.500293
  1
XX
100
AcDbText
  0
TEXT
  5
848
100
AcDbEntity
  8
199
100
AcDbText
  6
CONTINUOUS
 62
1
 10
-6.4736816E+01
 20
9.0773335E+01
 40
2.500293
  1
XX
100
AcDbText
  0
TEXT
  5
849
100
AcDbEntity
  8
199
100
AcDbText
  6
CONTINUOUS
 62
1
 10
-3.1732612E+01
 20
9.0773335E+01
 40
2.500293
  1
XX
100
AcDbText
  0
TEXT
  5
84a
100
AcDbEntity
  8
199
100
AcDbText
  6
CONTINUOUS
 62
1
 10
-1.5274326E+02
 20
9.0773335E+01
 40
2.500293
  1
XX
100
AcDbText
  0
TEXT
  5
84b
100
AcDbEntity
  8
199
100
AcDbText
  6
CONTINUOUS
 62
1
 10
-1.6474097E+02
 20
9.0773335E+01
 40
2.500293
  1
XX
100
AcDbText
  0
TEXT
  5
84c
100
AcDbEntity
  8
199
100
AcDbText
  6
CONTINUOUS
 62
1
 10
-1.7673951E+02
 20
9.0773335E+01
 40
2.500293
  1
02
100
AcDbText
  0
POLYLINE
  5
84d
100
AcDbEntity
  8
199
100
AcDb2dPolyline
  6
CONTINUOUS
 62
3
 66
1
 40
2.0E-01
 41
2.0E-01
 70
0
  0
VERTEX
  5
84e
100
AcDbEntity
  8
199
100
AcDbVertex
100
AcDb2dVertex
 42
0.0
 10
-1.8000007E+02
 20
9.600015E+01
 70
0
  0
VERTEX
  5
84f
100
AcDbEntity
  8
199
100
AcDbVertex
100
AcDb2dVertex
 42
0.0
 10
0.0
 20
9.600015E+01
 70
0
  0
SEQEND
  5
850
100
AcDbEntity
  0
POLYLINE
  5
851
100
AcDbEntity
  8
199
100
AcDb2dPolyline
  6
CONTINUOUS
 62
3
 66
1
 40
2.0E-01
 41
2.0E-01
 70
0
  0
VERTEX
  5
852
100
AcDbEntity
  8
199
100
AcDbVertex
100
AcDb2dVertex
 42
0.0
 10
-3.4999897E+01
 20
9.2000354E+01
 70
0
  0
VERTEX
  5
853
100
AcDbEntity
  8
199
100
AcDbVertex
100
AcDb2dVertex
 42
0.0
 10
-3.4999897E+01
 20
9.600015E+01
 70
0
  0
SEQEND
  5
854
100
AcDbEntity
  0
POLYLINE
  5
855
100
AcDbEntity
  8
199
100
AcDb2dPolyline
  6
CONTINUOUS
 62
3
 66
1
 40
2.0E-01
 41
2.0E-01
 70
0
  0
VERTEX
  5
856
100
AcDbEntity
  8
199
100
AcDbVertex
100
AcDb2dVertex
 42
0.0
 10
-1.0099989E+02
 20
8.8000558E+01
 70
0
  0
VERTEX
  5
857
100
AcDbEntity
  8
199
100
AcDbVertex
100
AcDb2dVertex
 42
0.0
 10
-1.0099989E+02
 20
9.600015E+01
 70
0
  0
SEQEND
  5
858
100
AcDbEntity
  0
POLYLINE
  5
859
100
AcDbEntity
  8
199
100
AcDb2dPolyline
  6
CONTINUOUS
 62
3
 66
1
 40
2.0E-01
 41
2.0E-01
 70
0
  0
VERTEX
  5
85a
100
AcDbEntity
  8
199
100
AcDbVertex
100
AcDb2dVertex
 42
0.0
 10
-6.7999896E+01
 20
8.8000558E+01
 70
0
  0
VERTEX
  5
85b
100
AcDbEntity
  8
199
100
AcDbVertex
100
AcDb2dVertex
 42
0.0
 10
-6.7999896E+01
 20
9.600015E+01
 70
0
  0
SEQEND
  5
85c
100
AcDbEntity
  0
POLYLINE
  5
85d
100
AcDbEntity
  8
199
100
AcDb2dPolyline
  6
CONTINUOUS
 62
3
 66
1
 40
2.0E-01
 41
2.0E-01
 70
0
  0
VERTEX
  5
85e
100
AcDbEntity
  8
199
100
AcDbVertex
100
AcDb2dVertex
 42
0.0
 10
-3.4999897E+01
 20
8.8000558E+01
 70
0
  0
VERTEX
  5
85f
100
AcDbEntity
  8
199
100
AcDbVertex
100
AcDb2dVertex
 42
0.0
 10
-3.4999897E+01
 20
9.2000354E+01
 70
0
  0
SEQEND
  5
860
100
AcDbEntity
  0
POLYLINE
  5
861
100
AcDbEntity
  8
199
100
AcDb2dPolyline
  6
CONTINUOUS
 62
3
 66
1
 40
2.0E-01
 41
2.0E-01
 70
0
  0
VERTEX
  5
862
100
AcDbEntity
  8
199
100
AcDbVertex
100
AcDb2dVertex
 42
0.0
 10
-1.6799984E+02
 20
8.8000558E+01
 70
0
  0
VERTEX
  5
863
100
AcDbEntity
  8
199
100
AcDbVertex
100
AcDb2dVertex
 42
0.0
 10
-1.6799984E+02
 20
9.600015E+01
 70
0
  0
SEQEND
  5
864
100
AcDbEntity
  0
POLYLINE
  5
865
100
AcDbEntity
  8
199
100
AcDb2dPolyline
  6
CONTINUOUS
 62
3
 66
1
 40
2.0E-01
 41
2.0E-01
 70
0
  0
VERTEX
  5
866
100
AcDbEntity
  8
199
100
AcDbVertex
100
AcDb2dVertex
 42
0.0
 10
-1.5600045E+02
 20
8.8000558E+01
 70
0
  0
VERTEX
  5
867
100
AcDbEntity
  8
199
100
AcDbVertex
100
AcDb2dVertex
 42
0.0
 10
-1.5600045E+02
 20
9.600015E+01
 70
0
  0
SEQEND
  5
868
100
AcDbEntity
  0
TEXT
  5
869
100
AcDbEntity
  8
199
100
AcDbText
  6
CONTINUOUS
 62
1
 10
-9.7741861E+01
 20
9.8772927E+01
 40
2.500293
  1
XX
100
AcDbText
  0
TEXT
  5
86a
100
AcDbEntity
  8
199
100
AcDbText
  6
CONTINUOUS
 62
1
 10
-6.4736816E+01
 20
9.8772927E+01
 40
2.500293
  1
XX
100
AcDbText
  0
TEXT
  5
86b
100
AcDbEntity
  8
199
100
AcDbText
  6
CONTINUOUS
 62
1
 10
-3.1732612E+01
 20
9.8772927E+01
 40
2.500293
  1
XX
100
AcDbText
  0
TEXT
  5
86c
100
AcDbEntity
  8
199
100
AcDbText
  6
CONTINUOUS
 62
1
 10
-1.5274326E+02
 20
9.8772927E+01
 40
2.500293
  1
XX
100
AcDbText
  0
TEXT
  5
86d
100
AcDbEntity
  8
199
100
AcDbText
  6
CONTINUOUS
 62
1
 10
-1.6474097E+02
 20
9.8772927E+01
 40
2.500293
  1
XX
100
AcDbText
  0
TEXT
  5
86e
100
AcDbEntity
  8
199
100
AcDbText
  6
CONTINUOUS
 62
1
 10
-1.7673951E+02
 20
9.8772927E+01
 40
2.500293
  1
03
100
AcDbText
  0
POLYLINE
  5
86f
100
AcDbEntity
  8
199
100
AcDb2dPolyline
  6
CONTINUOUS
 62
3
 66
1
 40
2.0E-01
 41
2.0E-01
 70
0
  0
VERTEX
  5
870
100
AcDbEntity
  8
199
100
AcDbVertex
100
AcDb2dVertex
 42
0.0
 10
-1.8000007E+02
 20
1.0399974E+02
 70
0
  0
VERTEX
  5
871
100
AcDbEntity
  8
199
100
AcDbVertex
100
AcDb2dVertex
 42
0.0
 10
0.0
 20
1.0399974E+02
 70
0
  0
SEQEND
  5
872
100
AcDbEntity
  0
POLYLINE
  5
873
100
AcDbEntity
  8
199
100
AcDb2dPolyline
  6
CONTINUOUS
 62
3
 66
1
 40
2.0E-01
 41
2.0E-01
 70
0
  0
VERTEX
  5
874
100
AcDbEntity
  8
199
100
AcDbVertex
100
AcDb2dVertex
 42
0.0
 10
-3.4999897E+01
 20
9.9999946E+01
 70
0
  0
VERTEX
  5
875
100
AcDbEntity
  8
199
100
AcDbVertex
100
AcDb2dVertex
 42
0.0
 10
-3.4999897E+01
 20
1.0399974E+02
 70
0
  0
SEQEND
  5
876
100
AcDbEntity
  0
POLYLINE
  5
877
100
AcDbEntity
  8
199
100
AcDb2dPolyline
  6
CONTINUOUS
 62
3
 66
1
 40
2.0E-01
 41
2.0E-01
 70
0
  0
VERTEX
  5
878
100
AcDbEntity
  8
199
100
AcDbVertex
100
AcDb2dVertex
 42
0.0
 10
-1.0099989E+02
 20
9.600015E+01
 70
0
  0
VERTEX
  5
879
100
AcDbEntity
  8
199
100
AcDbVertex
100
AcDb2dVertex
 42
0.0
 10
-1.0099989E+02
 20
1.0399974E+02
 70
0
  0
SEQEND
  5
87a
100
AcDbEntity
  0
POLYLINE
  5
87b
100
AcDbEntity
  8
199
100
AcDb2dPolyline
  6
CONTINUOUS
 62
3
 66
1
 40
2.0E-01
 41
2.0E-01
 70
0
  0
VERTEX
  5
87c
100
AcDbEntity
  8
199
100
AcDbVertex
100
AcDb2dVertex
 42
0.0
 10
-6.7999896E+01
 20
9.600015E+01
 70
0
  0
VERTEX
  5
87d
100
AcDbEntity
  8
199
100
AcDbVertex
100
AcDb2dVertex
 42
0.0
 10
-6.7999896E+01
 20
1.0399974E+02
 70
0
  0
SEQEND
  5
87e
100
AcDbEntity
  0
POLYLINE
  5
87f
100
AcDbEntity
  8
199
100
AcDb2dPolyline
  6
CONTINUOUS
 62
3
 66
1
 40
2.0E-01
 41
2.0E-01
 70
0
  0
VERTEX
  5
880
100
AcDbEntity
  8
199
100
AcDbVertex
100
AcDb2dVertex
 42
0.0
 10
-3.4999897E+01
 20
9.600015E+01
 70
0
  0
VERTEX
  5
881
100
AcDbEntity
  8
199
100
AcDbVertex
100
AcDb2dVertex
 42
0.0
 10
-3.4999897E+01
 20
9.9999946E+01
 70
0
  0
SEQEND
  5
882
100
AcDbEntity
  0
POLYLINE
  5
883
100
AcDbEntity
  8
199
100
AcDb2dPolyline
  6
CONTINUOUS
 62
3
 66
1
 40
2.0E-01
 41
2.0E-01
 70
0
  0
VERTEX
  5
884
100
AcDbEntity
  8
199
100
AcDbVertex
100
AcDb2dVertex
 42
0.0
 10
-1.6799984E+02
 20
9.600015E+01
 70
0
  0
VERTEX
  5
885
100
AcDbEntity
  8
199
100
AcDbVertex
100
AcDb2dVertex
 42
0.0
 10
-1.6799984E+02
 20
1.0399974E+02
 70
0
  0
SEQEND
  5
886
100
AcDbEntity
  0
POLYLINE
  5
887
100
AcDbEntity
  8
199
100
AcDb2dPolyline
  6
CONTINUOUS
 62
3
 66
1
 40
2.0E-01
 41
2.0E-01
 70
0
  0
VERTEX
  5
888
100
AcDbEntity
  8
199
100
AcDbVertex
100
AcDb2dVertex
 42
0.0
 10
-1.5600045E+02
 20
9.600015E+01
 70
0
  0
VERTEX
  5
889
100
AcDbEntity
  8
199
100
AcDbVertex
100
AcDb2dVertex
 42
0.0
 10
-1.5600045E+02
 20
1.0399974E+02
 70
0
  0
SEQEND
  5
88a
100
AcDbEntity
  0
TEXT
  5
88b
100
AcDbEntity
  8
199
100
AcDbText
  6
CONTINUOUS
 62
1
 10
-9.7741861E+01
 20
1.0677252E+02
 40
2.500293
  1
XX
100
AcDbText
  0
TEXT
  5
88c
100
AcDbEntity
  8
199
100
AcDbText
  6
CONTINUOUS
 62
1
 10
-6.4736816E+01
 20
1.0677252E+02
 40
2.500293
  1
XX
100
AcDbText
  0
TEXT
  5
88d
100
AcDbEntity
  8
199
100
AcDbText
  6
CONTINUOUS
 62
1
 10
-3.1732612E+01
 20
1.0677252E+02
 40
2.500293
  1
XX
100
AcDbText
  0
TEXT
  5
88e
100
AcDbEntity
  8
199
100
AcDbText
  6
CONTINUOUS
 62
1
 10
-1.5274326E+02
 20
1.0677252E+02
 40
2.500293
  1
XX
100
AcDbText
  0
TEXT
  5
88f
100
AcDbEntity
  8
199
100
AcDbText
  6
CONTINUOUS
 62
1
 10
-1.6474097E+02
 20
1.0677252E+02
 40
2.500293
  1
XX
100
AcDbText
  0
TEXT
  5
890
100
AcDbEntity
  8
199
100
AcDbText
  6
CONTINUOUS
 62
1
 10
-1.7673951E+02
 20
1.0677252E+02
 40
2.500293
  1
04
100
AcDbText
  0
POLYLINE
  5
891
100
AcDbEntity
  8
199
100
AcDb2dPolyline
  6
CONTINUOUS
 62
3
 66
1
 40
2.0E-01
 41
2.0E-01
 70
0
  0
VERTEX
  5
892
100
AcDbEntity
  8
199
100
AcDbVertex
100
AcDb2dVertex
 42
0.0
 10
-1.8000007E+02
 20
1.1199933E+02
 70
0
  0
VERTEX
  5
893
100
AcDbEntity
  8
199
100
AcDbVertex
100
AcDb2dVertex
 42
0.0
 10
0.0
 20
1.1199933E+02
 70
0
  0
SEQEND
  5
894
100
AcDbEntity
  0
POLYLINE
  5
895
100
AcDbEntity
  8
199
100
AcDb2dPolyline
  6
CONTINUOUS
 62
3
 66
1
 40
2.0E-01
 41
2.0E-01
 70
0
  0
VERTEX
  5
896
100
AcDbEntity
  8
199
100
AcDbVertex
100
AcDb2dVertex
 42
0.0
 10
-3.4999897E+01
 20
1.0799954E+02
 70
0
  0
VERTEX
  5
897
100
AcDbEntity
  8
199
100
AcDbVertex
100
AcDb2dVertex
 42
0.0
 10
-3.4999897E+01
 20
1.1199933E+02
 70
0
  0
SEQEND
  5
898
100
AcDbEntity
  0
POLYLINE
  5
899
100
AcDbEntity
  8
199
100
AcDb2dPolyline
  6
CONTINUOUS
 62
3
 66
1
 40
2.0E-01
 41
2.0E-01
 70
0
  0
VERTEX
  5
89a
100
AcDbEntity
  8
199
100
AcDbVertex
100
AcDb2dVertex
 42
0.0
 10
-1.0099989E+02
 20
1.0399974E+02
 70
0
  0
VERTEX
  5
89b
100
AcDbEntity
  8
199
100
AcDbVertex
100
AcDb2dVertex
 42
0.0
 10
-1.0099989E+02
 20
1.1199933E+02
 70
0
  0
SEQEND
  5
89c
100
AcDbEntity
  0
POLYLINE
  5
89d
100
AcDbEntity
  8
199
100
AcDb2dPolyline
  6
CONTINUOUS
 62
3
 66
1
 40
2.0E-01
 41
2.0E-01
 70
0
  0
VERTEX
  5
89e
100
AcDbEntity
  8
199
100
AcDbVertex
100
AcDb2dVertex
 42
0.0
 10
-6.7999896E+01
 20
1.0399974E+02
 70
0
  0
VERTEX
  5
89f
100
AcDbEntity
  8
199
100
AcDbVertex
100
AcDb2dVertex
 42
0.0
 10
-6.7999896E+01
 20
1.1199933E+02
 70
0
  0
SEQEND
  5
8a0
100
AcDbEntity
  0
POLYLINE
  5
8a1
100
AcDbEntity
  8
199
100
AcDb2dPolyline
  6
CONTINUOUS
 62
3
 66
1
 40
2.0E-01
 41
2.0E-01
 70
0
  0
VERTEX
  5
8a2
100
AcDbEntity
  8
199
100
AcDbVertex
100
AcDb2dVertex
 42
0.0
 10
-3.4999897E+01
 20
1.0399974E+02
 70
0
  0
VERTEX
  5
8a3
100
AcDbEntity
  8
199
100
AcDbVertex
100
AcDb2dVertex
 42
0.0
 10
-3.4999897E+01
 20
1.0799954E+02
 70
0
  0
SEQEND
  5
8a4
100
AcDbEntity
  0
POLYLINE
  5
8a5
100
AcDbEntity
  8
199
100
AcDb2dPolyline
  6
CONTINUOUS
 62
3
 66
1
 40
2.0E-01
 41
2.0E-01
 70
0
  0
VERTEX
  5
8a6
100
AcDbEntity
  8
199
100
AcDbVertex
100
AcDb2dVertex
 42
0.0
 10
-1.6799984E+02
 20
1.0399974E+02
 70
0
  0
VERTEX
  5
8a7
100
AcDbEntity
  8
199
100
AcDbVertex
100
AcDb2dVertex
 42
0.0
 10
-1.6799984E+02
 20
1.1199933E+02
 70
0
  0
SEQEND
  5
8a8
100
AcDbEntity
  0
POLYLINE
  5
8a9
100
AcDbEntity
  8
199
100
AcDb2dPolyline
  6
CONTINUOUS
 62
3
 66
1
 40
2.0E-01
 41
2.0E-01
 70
0
  0
VERTEX
  5
8aa
100
AcDbEntity
  8
199
100
AcDbVertex
100
AcDb2dVertex
 42
0.0
 10
-1.5600045E+02
 20
1.0399974E+02
 70
0
  0
VERTEX
  5
8ab
100
AcDbEntity
  8
199
100
AcDbVertex
100
AcDb2dVertex
 42
0.0
 10
-1.5600045E+02
 20
1.1199933E+02
 70
0
  0
SEQEND
  5
8ac
100
AcDbEntity
  0
TEXT
  5
8ad
100
AcDbEntity
  8
199
100
AcDbText
  6
CONTINUOUS
 62
1
 10
-9.7741861E+01
 20
1.1477211E+02
 40
2.500293
  1
XX
100
AcDbText
  0
TEXT
  5
8ae
100
AcDbEntity
  8
199
100
AcDbText
  6
CONTINUOUS
 62
1
 10
-6.4736816E+01
 20
1.1477211E+02
 40
2.500293
  1
XX
100
AcDbText
  0
TEXT
  5
8af
100
AcDbEntity
  8
199
100
AcDbText
  6
CONTINUOUS
 62
1
 10
-3.1732612E+01
 20
1.1477211E+02
 40
2.500293
  1
XX
100
AcDbText
  0
TEXT
  5
8b0
100
AcDbEntity
  8
199
100
AcDbText
  6
CONTINUOUS
 62
1
 10
-1.5274326E+02
 20
1.1477211E+02
 40
2.500293
  1
XX
100
AcDbText
  0
TEXT
  5
8b1
100
AcDbEntity
  8
199
100
AcDbText
  6
CONTINUOUS
 62
1
 10
-1.6474097E+02
 20
1.1477211E+02
 40
2.500293
  1
XX
100
AcDbText
  0
TEXT
  5
8b2
100
AcDbEntity
  8
199
100
AcDbText
  6
CONTINUOUS
 62
1
 10
-1.7673951E+02
 20
1.1477211E+02
 40
2.500293
  1
05
100
AcDbText
  0
POLYLINE
  5
8b3
100
AcDbEntity
  8
199
100
AcDb2dPolyline
  6
CONTINUOUS
 62
3
 66
1
 40
2.0E-01
 41
2.0E-01
 70
0
  0
VERTEX
  5
8b4
100
AcDbEntity
  8
199
100
AcDbVertex
100
AcDb2dVertex
 42
0.0
 10
-1.8000007E+02
 20
1.1999893E+02
 70
0
  0
VERTEX
  5
8b5
100
AcDbEntity
  8
199
100
AcDbVertex
100
AcDb2dVertex
 42
0.0
 10
0.0
 20
1.1999893E+02
 70
0
  0
SEQEND
  5
8b6
100
AcDbEntity
  0
POLYLINE
  5
8b7
100
AcDbEntity
  8
199
100
AcDb2dPolyline
  6
CONTINUOUS
 62
3
 66
1
 40
2.0E-01
 41
2.0E-01
 70
0
  0
VERTEX
  5
8b8
100
AcDbEntity
  8
199
100
AcDbVertex
100
AcDb2dVertex
 42
0.0
 10
-3.4999897E+01
 20
1.1599913E+02
 70
0
  0
VERTEX
  5
8b9
100
AcDbEntity
  8
199
100
AcDbVertex
100
AcDb2dVertex
 42
0.0
 10
-3.4999897E+01
 20
1.1999893E+02
 70
0
  0
SEQEND
  5
8ba
100
AcDbEntity
  0
POLYLINE
  5
8bb
100
AcDbEntity
  8
199
100
AcDb2dPolyline
  6
CONTINUOUS
 62
3
 66
1
 40
2.0E-01
 41
2.0E-01
 70
0
  0
VERTEX
  5
8bc
100
AcDbEntity
  8
199
100
AcDbVertex
100
AcDb2dVertex
 42
0.0
 10
-1.0099989E+02
 20
1.1199933E+02
 70
0
  0
VERTEX
  5
8bd
100
AcDbEntity
  8
199
100
AcDbVertex
100
AcDb2dVertex
 42
0.0
 10
-1.0099989E+02
 20
1.1999893E+02
 70
0
  0
SEQEND
  5
8be
100
AcDbEntity
  0
POLYLINE
  5
8bf
100
AcDbEntity
  8
199
100
AcDb2dPolyline
  6
CONTINUOUS
 62
3
 66
1
 40
2.0E-01
 41
2.0E-01
 70
0
  0
VERTEX
  5
8c0
100
AcDbEntity
  8
199
100
AcDbVertex
100
AcDb2dVertex
 42
0.0
 10
-6.7999896E+01
 20
1.1199933E+02
 70
0
  0
VERTEX
  5
8c1
100
AcDbEntity
  8
199
100
AcDbVertex
100
AcDb2dVertex
 42
0.0
 10
-6.7999896E+01
 20
1.1999893E+02
 70
0
  0
SEQEND
  5
8c2
100
AcDbEntity
  0
POLYLINE
  5
8c3
100
AcDbEntity
  8
199
100
AcDb2dPolyline
  6
CONTINUOUS
 62
3
 66
1
 40
2.0E-01
 41
2.0E-01
 70
0
  0
VERTEX
  5
8c4
100
AcDbEntity
  8
199
100
AcDbVertex
100
AcDb2dVertex
 42
0.0
 10
-3.4999897E+01
 20
1.1199933E+02
 70
0
  0
VERTEX
  5
8c5
100
AcDbEntity
  8
199
100
AcDbVertex
100
AcDb2dVertex
 42
0.0
 10
-3.4999897E+01
 20
1.1599913E+02
 70
0
  0
SEQEND
  5
8c6
100
AcDbEntity
  0
POLYLINE
  5
8c7
100
AcDbEntity
  8
199
100
AcDb2dPolyline
  6
CONTINUOUS
 62
3
 66
1
 40
2.0E-01
 41
2.0E-01
 70
0
  0
VERTEX
  5
8c8
100
AcDbEntity
  8
199
100
AcDbVertex
100
AcDb2dVertex
 42
0.0
 10
-1.6799984E+02
 20
1.1199933E+02
 70
0
  0
VERTEX
  5
8c9
100
AcDbEntity
  8
199
100
AcDbVertex
100
AcDb2dVertex
 42
0.0
 10
-1.6799984E+02
 20
1.1999893E+02
 70
0
  0
SEQEND
  5
8ca
100
AcDbEntity
  0
POLYLINE
  5
8cb
100
AcDbEntity
  8
199
100
AcDb2dPolyline
  6
CONTINUOUS
 62
3
 66
1
 40
2.0E-01
 41
2.0E-01
 70
0
  0
VERTEX
  5
8cc
100
AcDbEntity
  8
199
100
AcDbVertex
100
AcDb2dVertex
 42
0.0
 10
-1.5600045E+02
 20
1.1199933E+02
 70
0
  0
VERTEX
  5
8cd
100
AcDbEntity
  8
199
100
AcDbVertex
100
AcDb2dVertex
 42
0.0
 10
-1.5600045E+02
 20
1.1999893E+02
 70
0
  0
SEQEND
  5
8ce
100
AcDbEntity
  0
TEXT
  5
8cf
100
AcDbEntity
  8
199
100
AcDbText
  6
CONTINUOUS
 62
1
 10
-9.7741861E+01
 20
1.227717E+02
 40
2.500293
  1
XX
100
AcDbText
  0
TEXT
  5
8d0
100
AcDbEntity
  8
199
100
AcDbText
  6
CONTINUOUS
 62
1
 10
-6.4736816E+01
 20
1.227717E+02
 40
2.500293
  1
XX
100
AcDbText
  0
TEXT
  5
8d1
100
AcDbEntity
  8
199
100
AcDbText
  6
CONTINUOUS
 62
1
 10
-3.1732612E+01
 20
1.227717E+02
 40
2.500293
  1
XX
100
AcDbText
  0
TEXT
  5
8d2
100
AcDbEntity
  8
199
100
AcDbText
  6
CONTINUOUS
 62
1
 10
-1.5274326E+02
 20
1.227717E+02
 40
2.500293
  1
XX
100
AcDbText
  0
TEXT
  5
8d3
100
AcDbEntity
  8
199
100
AcDbText
  6
CONTINUOUS
 62
1
 10
-1.6474097E+02
 20
1.227717E+02
 40
2.500293
  1
XX
100
AcDbText
  0
TEXT
  5
8d4
100
AcDbEntity
  8
199
100
AcDbText
  6
CONTINUOUS
 62
1
 10
-1.7673951E+02
 20
1.227717E+02
 40
2.500293
  1
06
100
AcDbText
  0
POLYLINE
  5
8d5
100
AcDbEntity
  8
199
100
AcDb2dPolyline
  6
CONTINUOUS
 62
3
 66
1
 40
2.0E-01
 41
2.0E-01
 70
0
  0
VERTEX
  5
8d6
100
AcDbEntity
  8
199
100
AcDbVertex
100
AcDb2dVertex
 42
0.0
 10
-1.8000007E+02
 20
1.2799852E+02
 70
0
  0
VERTEX
  5
8d7
100
AcDbEntity
  8
199
100
AcDbVertex
100
AcDb2dVertex
 42
0.0
 10
0.0
 20
1.2799852E+02
 70
0
  0
SEQEND
  5
8d8
100
AcDbEntity
  0
POLYLINE
  5
8d9
100
AcDbEntity
  8
199
100
AcDb2dPolyline
  6
CONTINUOUS
 62
3
 66
1
 40
2.0E-01
 41
2.0E-01
 70
0
  0
VERTEX
  5
8da
100
AcDbEntity
  8
199
100
AcDbVertex
100
AcDb2dVertex
 42
0.0
 10
-3.4999897E+01
 20
1.2399872E+02
 70
0
  0
VERTEX
  5
8db
100
AcDbEntity
  8
199
100
AcDbVertex
100
AcDb2dVertex
 42
0.0
 10
-3.4999897E+01
 20
1.2799852E+02
 70
0
  0
SEQEND
  5
8dc
100
AcDbEntity
  0
POLYLINE
  5
8dd
100
AcDbEntity
  8
199
100
AcDb2dPolyline
  6
CONTINUOUS
 62
3
 66
1
 40
2.0E-01
 41
2.0E-01
 70
0
  0
VERTEX
  5
8de
100
AcDbEntity
  8
199
100
AcDbVertex
100
AcDb2dVertex
 42
0.0
 10
-1.0099989E+02
 20
1.1999893E+02
 70
0
  0
VERTEX
  5
8df
100
AcDbEntity
  8
199
100
AcDbVertex
100
AcDb2dVertex
 42
0.0
 10
-1.0099989E+02
 20
1.2799852E+02
 70
0
  0
SEQEND
  5
8e0
100
AcDbEntity
  0
POLYLINE
  5
8e1
100
AcDbEntity
  8
199
100
AcDb2dPolyline
  6
CONTINUOUS
 62
3
 66
1
 40
2.0E-01
 41
2.0E-01
 70
0
  0
VERTEX
  5
8e2
100
AcDbEntity
  8
199
100
AcDbVertex
100
AcDb2dVertex
 42
0.0
 10
-6.7999896E+01
 20
1.1999893E+02
 70
0
  0
VERTEX
  5
8e3
100
AcDbEntity
  8
199
100
AcDbVertex
100
AcDb2dVertex
 42
0.0
 10
-6.7999896E+01
 20
1.2799852E+02
 70
0
  0
SEQEND
  5
8e4
100
AcDbEntity
  0
POLYLINE
  5
8e5
100
AcDbEntity
  8
199
100
AcDb2dPolyline
  6
CONTINUOUS
 62
3
 66
1
 40
2.0E-01
 41
2.0E-01
 70
0
  0
VERTEX
  5
8e6
100
AcDbEntity
  8
199
100
AcDbVertex
100
AcDb2dVertex
 42
0.0
 10
-3.4999897E+01
 20
1.1999893E+02
 70
0
  0
VERTEX
  5
8e7
100
AcDbEntity
  8
199
100
AcDbVertex
100
AcDb2dVertex
 42
0.0
 10
-3.4999897E+01
 20
1.2399872E+02
 70
0
  0
SEQEND
  5
8e8
100
AcDbEntity
  0
POLYLINE
  5
8e9
100
AcDbEntity
  8
199
100
AcDb2dPolyline
  6
CONTINUOUS
 62
3
 66
1
 40
2.0E-01
 41
2.0E-01
 70
0
  0
VERTEX
  5
8ea
100
AcDbEntity
  8
199
100
AcDbVertex
100
AcDb2dVertex
 42
0.0
 10
-1.6799984E+02
 20
1.1999893E+02
 70
0
  0
VERTEX
  5
8eb
100
AcDbEntity
  8
199
100
AcDbVertex
100
AcDb2dVertex
 42
0.0
 10
-1.6799984E+02
 20
1.2799852E+02
 70
0
  0
SEQEND
  5
8ec
100
AcDbEntity
  0
POLYLINE
  5
8ed
100
AcDbEntity
  8
199
100
AcDb2dPolyline
  6
CONTINUOUS
 62
3
 66
1
 40
2.0E-01
 41
2.0E-01
 70
0
  0
VERTEX
  5
8ee
100
AcDbEntity
  8
199
100
AcDbVertex
100
AcDb2dVertex
 42
0.0
 10
-1.5600045E+02
 20
1.1999893E+02
 70
0
  0
VERTEX
  5
8ef
100
AcDbEntity
  8
199
100
AcDbVertex
100
AcDb2dVertex
 42
0.0
 10
-1.5600045E+02
 20
1.2799852E+02
 70
0
  0
SEQEND
  5
8f0
100
AcDbEntity
  0
TEXT
  5
8f1
100
AcDbEntity
  8
199
100
AcDbText
  6
CONTINUOUS
 62
1
 10
-9.7741861E+01
 20
1.307713E+02
 40
2.500293
  1
XX
100
AcDbText
  0
TEXT
  5
8f2
100
AcDbEntity
  8
199
100
AcDbText
  6
CONTINUOUS
 62
1
 10
-6.4736816E+01
 20
1.307713E+02
 40
2.500293
  1
XX
100
AcDbText
  0
TEXT
  5
8f3
100
AcDbEntity
  8
199
100
AcDbText
  6
CONTINUOUS
 62
1
 10
-3.1732612E+01
 20
1.307713E+02
 40
2.500293
  1
XX
100
AcDbText
  0
TEXT
  5
8f4
100
AcDbEntity
  8
199
100
AcDbText
  6
CONTINUOUS
 62
1
 10
-1.5274326E+02
 20
1.307713E+02
 40
2.500293
  1
XX
100
AcDbText
  0
TEXT
  5
8f5
100
AcDbEntity
  8
199
100
AcDbText
  6
CONTINUOUS
 62
1
 10
-1.6474097E+02
 20
1.307713E+02
 40
2.500293
  1
XX
100
AcDbText
  0
TEXT
  5
8f6
100
AcDbEntity
  8
199
100
AcDbText
  6
CONTINUOUS
 62
1
 10
-1.7673951E+02
 20
1.307713E+02
 40
2.500293
  1
07
100
AcDbText
  0
POLYLINE
  5
8f7
100
AcDbEntity
  8
199
100
AcDb2dPolyline
  6
CONTINUOUS
 62
3
 66
1
 40
2.0E-01
 41
2.0E-01
 70
0
  0
VERTEX
  5
8f8
100
AcDbEntity
  8
199
100
AcDbVertex
100
AcDb2dVertex
 42
0.0
 10
-1.8000007E+02
 20
1.3599811E+02
 70
0
  0
VERTEX
  5
8f9
100
AcDbEntity
  8
199
100
AcDbVertex
100
AcDb2dVertex
 42
0.0
 10
0.0
 20
1.3599811E+02
 70
0
  0
SEQEND
  5
8fa
100
AcDbEntity
  0
POLYLINE
  5
8fb
100
AcDbEntity
  8
199
100
AcDb2dPolyline
  6
CONTINUOUS
 62
3
 66
1
 40
2.0E-01
 41
2.0E-01
 70
0
  0
VERTEX
  5
8fc
100
AcDbEntity
  8
199
100
AcDbVertex
100
AcDb2dVertex
 42
0.0
 10
-3.4999897E+01
 20
1.3199831E+02
 70
0
  0
VERTEX
  5
8fd
100
AcDbEntity
  8
199
100
AcDbVertex
100
AcDb2dVertex
 42
0.0
 10
-3.4999897E+01
 20
1.3599811E+02
 70
0
  0
SEQEND
  5
8fe
100
AcDbEntity
  0
POLYLINE
  5
8ff
100
AcDbEntity
  8
199
100
AcDb2dPolyline
  6
CONTINUOUS
 62
3
 66
1
 40
2.0E-01
 41
2.0E-01
 70
0
  0
VERTEX
  5
900
100
AcDbEntity
  8
199
100
AcDbVertex
100
AcDb2dVertex
 42
0.0
 10
-1.0099989E+02
 20
1.2799852E+02
 70
0
  0
VERTEX
  5
901
100
AcDbEntity
  8
199
100
AcDbVertex
100
AcDb2dVertex
 42
0.0
 10
-1.0099989E+02
 20
1.3599811E+02
 70
0
  0
SEQEND
  5
902
100
AcDbEntity
  0
POLYLINE
  5
903
100
AcDbEntity
  8
199
100
AcDb2dPolyline
  6
CONTINUOUS
 62
3
 66
1
 40
2.0E-01
 41
2.0E-01
 70
0
  0
VERTEX
  5
904
100
AcDbEntity
  8
199
100
AcDbVertex
100
AcDb2dVertex
 42
0.0
 10
-6.7999896E+01
 20
1.2799852E+02
 70
0
  0
VERTEX
  5
905
100
AcDbEntity
  8
199
100
AcDbVertex
100
AcDb2dVertex
 42
0.0
 10
-6.7999896E+01
 20
1.3599811E+02
 70
0
  0
SEQEND
  5
906
100
AcDbEntity
  0
POLYLINE
  5
907
100
AcDbEntity
  8
199
100
AcDb2dPolyline
  6
CONTINUOUS
 62
3
 66
1
 40
2.0E-01
 41
2.0E-01
 70
0
  0
VERTEX
  5
908
100
AcDbEntity
  8
199
100
AcDbVertex
100
AcDb2dVertex
 42
0.0
 10
-3.4999897E+01
 20
1.2799852E+02
 70
0
  0
VERTEX
  5
909
100
AcDbEntity
  8
199
100
AcDbVertex
100
AcDb2dVertex
 42
0.0
 10
-3.4999897E+01
 20
1.3199831E+02
 70
0
  0
SEQEND
  5
90a
100
AcDbEntity
  0
POLYLINE
  5
90b
100
AcDbEntity
  8
199
100
AcDb2dPolyline
  6
CONTINUOUS
 62
3
 66
1
 40
2.0E-01
 41
2.0E-01
 70
0
  0
VERTEX
  5
90c
100
AcDbEntity
  8
199
100
AcDbVertex
100
AcDb2dVertex
 42
0.0
 10
-1.6799984E+02
 20
1.2799852E+02
 70
0
  0
VERTEX
  5
90d
100
AcDbEntity
  8
199
100
AcDbVertex
100
AcDb2dVertex
 42
0.0
 10
-1.6799984E+02
 20
1.3599811E+02
 70
0
  0
SEQEND
  5
90e
100
AcDbEntity
  0
POLYLINE
  5
90f
100
AcDbEntity
  8
199
100
AcDb2dPolyline
  6
CONTINUOUS
 62
3
 66
1
 40
2.0E-01
 41
2.0E-01
 70
0
  0
VERTEX
  5
910
100
AcDbEntity
  8
199
100
AcDbVertex
100
AcDb2dVertex
 42
0.0
 10
-1.5600045E+02
 20
1.2799852E+02
 70
0
  0
VERTEX
  5
911
100
AcDbEntity
  8
199
100
AcDbVertex
100
AcDb2dVertex
 42
0.0
 10
-1.5600045E+02
 20
1.3599811E+02
 70
0
  0
SEQEND
  5
912
100
AcDbEntity
  0
TEXT
  5
913
100
AcDbEntity
  8
199
100
AcDbText
  6
CONTINUOUS
 62
1
 10
-9.7741861E+01
 20
1.3877089E+02
 40
2.500293
  1
XX
100
AcDbText
  0
TEXT
  5
914
100
AcDbEntity
  8
199
100
AcDbText
  6
CONTINUOUS
 62
1
 10
-6.4736816E+01
 20
1.3877089E+02
 40
2.500293
  1
XX
100
AcDbText
  0
TEXT
  5
915
100
AcDbEntity
  8
199
100
AcDbText
  6
CONTINUOUS
 62
1
 10
-3.1732612E+01
 20
1.3877089E+02
 40
2.500293
  1
XX
100
AcDbText
  0
TEXT
  5
916
100
AcDbEntity
  8
199
100
AcDbText
  6
CONTINUOUS
 62
1
 10
-1.5274326E+02
 20
1.3877089E+02
 40
2.500293
  1
XX
100
AcDbText
  0
TEXT
  5
917
100
AcDbEntity
  8
199
100
AcDbText
  6
CONTINUOUS
 62
1
 10
-1.6474097E+02
 20
1.3877089E+02
 40
2.500293
  1
XX
100
AcDbText
  0
TEXT
  5
918
100
AcDbEntity
  8
199
100
AcDbText
  6
CONTINUOUS
 62
1
 10
-1.7673951E+02
 20
1.3877089E+02
 40
2.500293
  1
08
100
AcDbText
  0
POLYLINE
  5
919
100
AcDbEntity
  8
199
100
AcDb2dPolyline
  6
CONTINUOUS
 62
3
 66
1
 40
2.0E-01
 41
2.0E-01
 70
0
  0
VERTEX
  5
91a
100
AcDbEntity
  8
199
100
AcDbVertex
100
AcDb2dVertex
 42
0.0
 10
-1.8000007E+02
 20
1.439977E+02
 70
0
  0
VERTEX
  5
91b
100
AcDbEntity
  8
199
100
AcDbVertex
100
AcDb2dVertex
 42
0.0
 10
0.0
 20
1.439977E+02
 70
0
  0
SEQEND
  5
91c
100
AcDbEntity
  0
POLYLINE
  5
91d
100
AcDbEntity
  8
199
100
AcDb2dPolyline
  6
CONTINUOUS
 62
3
 66
1
 40
2.0E-01
 41
2.0E-01
 70
0
  0
VERTEX
  5
91e
100
AcDbEntity
  8
199
100
AcDbVertex
100
AcDb2dVertex
 42
0.0
 10
-3.4999897E+01
 20
1.3999791E+02
 70
0
  0
VERTEX
  5
91f
100
AcDbEntity
  8
199
100
AcDbVertex
100
AcDb2dVertex
 42
0.0
 10
-3.4999897E+01
 20
1.439977E+02
 70
0
  0
SEQEND
  5
920
100
AcDbEntity
  0
POLYLINE
  5
921
100
AcDbEntity
  8
199
100
AcDb2dPolyline
  6
CONTINUOUS
 62
3
 66
1
 40
2.0E-01
 41
2.0E-01
 70
0
  0
VERTEX
  5
922
100
AcDbEntity
  8
199
100
AcDbVertex
100
AcDb2dVertex
 42
0.0
 10
-1.0099989E+02
 20
1.3599811E+02
 70
0
  0
VERTEX
  5
923
100
AcDbEntity
  8
199
100
AcDbVertex
100
AcDb2dVertex
 42
0.0
 10
-1.0099989E+02
 20
1.439977E+02
 70
0
  0
SEQEND
  5
924
100
AcDbEntity
  0
POLYLINE
  5
925
100
AcDbEntity
  8
199
100
AcDb2dPolyline
  6
CONTINUOUS
 62
3
 66
1
 40
2.0E-01
 41
2.0E-01
 70
0
  0
VERTEX
  5
926
100
AcDbEntity
  8
199
100
AcDbVertex
100
AcDb2dVertex
 42
0.0
 10
-6.7999896E+01
 20
1.3599811E+02
 70
0
  0
VERTEX
  5
927
100
AcDbEntity
  8
199
100
AcDbVertex
100
AcDb2dVertex
 42
0.0
 10
-6.7999896E+01
 20
1.439977E+02
 70
0
  0
SEQEND
  5
928
100
AcDbEntity
  0
POLYLINE
  5
929
100
AcDbEntity
  8
199
100
AcDb2dPolyline
  6
CONTINUOUS
 62
3
 66
1
 40
2.0E-01
 41
2.0E-01
 70
0
  0
VERTEX
  5
92a
100
AcDbEntity
  8
199
100
AcDbVertex
100
AcDb2dVertex
 42
0.0
 10
-3.4999897E+01
 20
1.3599811E+02
 70
0
  0
VERTEX
  5
92b
100
AcDbEntity
  8
199
100
AcDbVertex
100
AcDb2dVertex
 42
0.0
 10
-3.4999897E+01
 20
1.3999791E+02
 70
0
  0
SEQEND
  5
92c
100
AcDbEntity
  0
POLYLINE
  5
92d
100
AcDbEntity
  8
199
100
AcDb2dPolyline
  6
CONTINUOUS
 62
3
 66
1
 40
2.0E-01
 41
2.0E-01
 70
0
  0
VERTEX
  5
92e
100
AcDbEntity
  8
199
100
AcDbVertex
100
AcDb2dVertex
 42
0.0
 10
-1.6799984E+02
 20
1.3599811E+02
 70
0
  0
VERTEX
  5
92f
100
AcDbEntity
  8
199
100
AcDbVertex
100
AcDb2dVertex
 42
0.0
 10
-1.6799984E+02
 20
1.439977E+02
 70
0
  0
SEQEND
  5
930
100
AcDbEntity
  0
POLYLINE
  5
931
100
AcDbEntity
  8
199
100
AcDb2dPolyline
  6
CONTINUOUS
 62
3
 66
1
 40
2.0E-01
 41
2.0E-01
 70
0
  0
VERTEX
  5
932
100
AcDbEntity
  8
199
100
AcDbVertex
100
AcDb2dVertex
 42
0.0
 10
-1.5600045E+02
 20
1.3599811E+02
 70
0
  0
VERTEX
  5
933
100
AcDbEntity
  8
199
100
AcDbVertex
100
AcDb2dVertex
 42
0.0
 10
-1.5600045E+02
 20
1.439977E+02
 70
0
  0
SEQEND
  5
934
100
AcDbEntity
  0
TEXT
  5
935
100
AcDbEntity
  8
199
100
AcDbText
  6
CONTINUOUS
 62
1
 10
-9.7741861E+01
 20
1.4677048E+02
 40
2.500293
  1
XX
100
AcDbText
  0
TEXT
  5
936
100
AcDbEntity
  8
199
100
AcDbText
  6
CONTINUOUS
 62
1
 10
-6.4736816E+01
 20
1.4677048E+02
 40
2.500293
  1
XX
100
AcDbText
  0
TEXT
  5
937
100
AcDbEntity
  8
199
100
AcDbText
  6
CONTINUOUS
 62
1
 10
-3.1732612E+01
 20
1.4677048E+02
 40
2.500293
  1
XX
100
AcDbText
  0
TEXT
  5
938
100
AcDbEntity
  8
199
100
AcDbText
  6
CONTINUOUS
 62
1
 10
-1.5274326E+02
 20
1.4677048E+02
 40
2.500293
  1
XX
100
AcDbText
  0
TEXT
  5
939
100
AcDbEntity
  8
199
100
AcDbText
  6
CONTINUOUS
 62
1
 10
-1.6474097E+02
 20
1.4677048E+02
 40
2.500293
  1
XX
100
AcDbText
  0
TEXT
  5
93a
100
AcDbEntity
  8
199
100
AcDbText
  6
CONTINUOUS
 62
1
 10
-1.7673951E+02
 20
1.4677048E+02
 40
2.500293
  1
09
100
AcDbText
  0
POLYLINE
  5
93b
100
AcDbEntity
  8
199
100
AcDb2dPolyline
  6
CONTINUOUS
 62
3
 66
1
 40
2.0E-01
 41
2.0E-01
 70
0
  0
VERTEX
  5
93c
100
AcDbEntity
  8
199
100
AcDbVertex
100
AcDb2dVertex
 42
0.0
 10
-1.8000007E+02
 20
1.5199729E+02
 70
0
  0
VERTEX
  5
93d
100
AcDbEntity
  8
199
100
AcDbVertex
100
AcDb2dVertex
 42
0.0
 10
0.0
 20
1.5199729E+02
 70
0
  0
SEQEND
  5
93e
100
AcDbEntity
  0
POLYLINE
  5
93f
100
AcDbEntity
  8
199
100
AcDb2dPolyline
  6
CONTINUOUS
 62
3
 66
1
 40
2.0E-01
 41
2.0E-01
 70
0
  0
VERTEX
  5
940
100
AcDbEntity
  8
199
100
AcDbVertex
100
AcDb2dVertex
 42
0.0
 10
-3.4999897E+01
 20
1.479975E+02
 70
0
  0
VERTEX
  5
941
100
AcDbEntity
  8
199
100
AcDbVertex
100
AcDb2dVertex
 42
0.0
 10
-3.4999897E+01
 20
1.5199729E+02
 70
0
  0
SEQEND
  5
942
100
AcDbEntity
  0
POLYLINE
  5
943
100
AcDbEntity
  8
199
100
AcDb2dPolyline
  6
CONTINUOUS
 62
3
 66
1
 40
2.0E-01
 41
2.0E-01
 70
0
  0
VERTEX
  5
944
100
AcDbEntity
  8
199
100
AcDbVertex
100
AcDb2dVertex
 42
0.0
 10
-1.0099989E+02
 20
1.439977E+02
 70
0
  0
VERTEX
  5
945
100
AcDbEntity
  8
199
100
AcDbVertex
100
AcDb2dVertex
 42
0.0
 10
-1.0099989E+02
 20
1.5199729E+02
 70
0
  0
SEQEND
  5
946
100
AcDbEntity
  0
POLYLINE
  5
947
100
AcDbEntity
  8
199
100
AcDb2dPolyline
  6
CONTINUOUS
 62
3
 66
1
 40
2.0E-01
 41
2.0E-01
 70
0
  0
VERTEX
  5
948
100
AcDbEntity
  8
199
100
AcDbVertex
100
AcDb2dVertex
 42
0.0
 10
-6.7999896E+01
 20
1.439977E+02
 70
0
  0
VERTEX
  5
949
100
AcDbEntity
  8
199
100
AcDbVertex
100
AcDb2dVertex
 42
0.0
 10
-6.7999896E+01
 20
1.5199729E+02
 70
0
  0
SEQEND
  5
94a
100
AcDbEntity
  0
POLYLINE
  5
94b
100
AcDbEntity
  8
199
100
AcDb2dPolyline
  6
CONTINUOUS
 62
3
 66
1
 40
2.0E-01
 41
2.0E-01
 70
0
  0
VERTEX
  5
94c
100
AcDbEntity
  8
199
100
AcDbVertex
100
AcDb2dVertex
 42
0.0
 10
-3.4999897E+01
 20
1.439977E+02
 70
0
  0
VERTEX
  5
94d
100
AcDbEntity
  8
199
100
AcDbVertex
100
AcDb2dVertex
 42
0.0
 10
-3.4999897E+01
 20
1.479975E+02
 70
0
  0
SEQEND
  5
94e
100
AcDbEntity
  0
POLYLINE
  5
94f
100
AcDbEntity
  8
199
100
AcDb2dPolyline
  6
CONTINUOUS
 62
3
 66
1
 40
2.0E-01
 41
2.0E-01
 70
0
  0
VERTEX
  5
950
100
AcDbEntity
  8
199
100
AcDbVertex
100
AcDb2dVertex
 42
0.0
 10
-1.6799984E+02
 20
1.439977E+02
 70
0
  0
VERTEX
  5
951
100
AcDbEntity
  8
199
100
AcDbVertex
100
AcDb2dVertex
 42
0.0
 10
-1.6799984E+02
 20
1.5199729E+02
 70
0
  0
SEQEND
  5
952
100
AcDbEntity
  0
POLYLINE
  5
953
100
AcDbEntity
  8
199
100
AcDb2dPolyline
  6
CONTINUOUS
 62
3
 66
1
 40
2.0E-01
 41
2.0E-01
 70
0
  0
VERTEX
  5
954
100
AcDbEntity
  8
199
100
AcDbVertex
100
AcDb2dVertex
 42
0.0
 10
-1.5600045E+02
 20
1.439977E+02
 70
0
  0
VERTEX
  5
955
100
AcDbEntity
  8
199
100
AcDbVertex
100
AcDb2dVertex
 42
0.0
 10
-1.5600045E+02
 20
1.5199729E+02
 70
0
  0
SEQEND
  5
956
100
AcDbEntity
  0
TEXT
  5
957
100
AcDbEntity
  8
199
100
AcDbText
  6
CONTINUOUS
 62
1
 10
-9.7741861E+01
 20
1.5477007E+02
 40
2.500293
  1
XX
100
AcDbText
  0
TEXT
  5
958
100
AcDbEntity
  8
199
100
AcDbText
  6
CONTINUOUS
 62
1
 10
-6.4736816E+01
 20
1.5477007E+02
 40
2.500293
  1
XX
100
AcDbText
  0
TEXT
  5
959
100
AcDbEntity
  8
199
100
AcDbText
  6
CONTINUOUS
 62
1
 10
-3.1732612E+01
 20
1.5477007E+02
 40
2.500293
  1
XX
100
AcDbText
  0
TEXT
  5
95a
100
AcDbEntity
  8
199
100
AcDbText
  6
CONTINUOUS
 62
1
 10
-1.5274326E+02
 20
1.5477007E+02
 40
2.500293
  1
XX
100
AcDbText
  0
TEXT
  5
95b
100
AcDbEntity
  8
199
100
AcDbText
  6
CONTINUOUS
 62
1
 10
-1.6474097E+02
 20
1.5477007E+02
 40
2.500293
  1
XX
100
AcDbText
  0
TEXT
  5
95c
100
AcDbEntity
  8
199
100
AcDbText
  6
CONTINUOUS
 62
1
 10
-1.7673951E+02
 20
1.5477007E+02
 40
2.500293
  1
10
100
AcDbText
  0
POLYLINE
  5
95d
100
AcDbEntity
  8
199
100
AcDb2dPolyline
  6
CONTINUOUS
 62
3
 66
1
 40
2.0E-01
 41
2.0E-01
 70
0
  0
VERTEX
  5
95e
100
AcDbEntity
  8
199
100
AcDbVertex
100
AcDb2dVertex
 42
0.0
 10
-1.8000007E+02
 20
1.5999689E+02
 70
0
  0
VERTEX
  5
95f
100
AcDbEntity
  8
199
100
AcDbVertex
100
AcDb2dVertex
 42
0.0
 10
0.0
 20
1.5999689E+02
 70
0
  0
SEQEND
  5
960
100
AcDbEntity
  0
POLYLINE
  5
961
100
AcDbEntity
  8
199
100
AcDb2dPolyline
  6
CONTINUOUS
 62
3
 66
1
 40
2.0E-01
 41
2.0E-01
 70
0
  0
VERTEX
  5
962
100
AcDbEntity
  8
199
100
AcDbVertex
100
AcDb2dVertex
 42
0.0
 10
-3.4999897E+01
 20
1.5599709E+02
 70
0
  0
VERTEX
  5
963
100
AcDbEntity
  8
199
100
AcDbVertex
100
AcDb2dVertex
 42
0.0
 10
-3.4999897E+01
 20
1.5999689E+02
 70
0
  0
SEQEND
  5
964
100
AcDbEntity
  0
POLYLINE
  5
965
100
AcDbEntity
  8
199
100
AcDb2dPolyline
  6
CONTINUOUS
 62
3
 66
1
 40
2.0E-01
 41
2.0E-01
 70
0
  0
VERTEX
  5
966
100
AcDbEntity
  8
199
100
AcDbVertex
100
AcDb2dVertex
 42
0.0
 10
-1.0099989E+02
 20
1.5199729E+02
 70
0
  0
VERTEX
  5
967
100
AcDbEntity
  8
199
100
AcDbVertex
100
AcDb2dVertex
 42
0.0
 10
-1.0099989E+02
 20
1.5999689E+02
 70
0
  0
SEQEND
  5
968
100
AcDbEntity
  0
POLYLINE
  5
969
100
AcDbEntity
  8
199
100
AcDb2dPolyline
  6
CONTINUOUS
 62
3
 66
1
 40
2.0E-01
 41
2.0E-01
 70
0
  0
VERTEX
  5
96a
100
AcDbEntity
  8
199
100
AcDbVertex
100
AcDb2dVertex
 42
0.0
 10
-6.7999896E+01
 20
1.5199729E+02
 70
0
  0
VERTEX
  5
96b
100
AcDbEntity
  8
199
100
AcDbVertex
100
AcDb2dVertex
 42
0.0
 10
-6.7999896E+01
 20
1.5999689E+02
 70
0
  0
SEQEND
  5
96c
100
AcDbEntity
  0
POLYLINE
  5
96d
100
AcDbEntity
  8
199
100
AcDb2dPolyline
  6
CONTINUOUS
 62
3
 66
1
 40
2.0E-01
 41
2.0E-01
 70
0
  0
VERTEX
  5
96e
100
AcDbEntity
  8
199
100
AcDbVertex
100
AcDb2dVertex
 42
0.0
 10
-3.4999897E+01
 20
1.5199729E+02
 70
0
  0
VERTEX
  5
96f
100
AcDbEntity
  8
199
100
AcDbVertex
100
AcDb2dVertex
 42
0.0
 10
-3.4999897E+01
 20
1.5599709E+02
 70
0
  0
SEQEND
  5
970
100
AcDbEntity
  0
POLYLINE
  5
971
100
AcDbEntity
  8
199
100
AcDb2dPolyline
  6
CONTINUOUS
 62
3
 66
1
 40
2.0E-01
 41
2.0E-01
 70
0
  0
VERTEX
  5
972
100
AcDbEntity
  8
199
100
AcDbVertex
100
AcDb2dVertex
 42
0.0
 10
-1.6799984E+02
 20
1.5199729E+02
 70
0
  0
VERTEX
  5
973
100
AcDbEntity
  8
199
100
AcDbVertex
100
AcDb2dVertex
 42
0.0
 10
-1.6799984E+02
 20
1.5999689E+02
 70
0
  0
SEQEND
  5
974
100
AcDbEntity
  0
POLYLINE
  5
975
100
AcDbEntity
  8
199
100
AcDb2dPolyline
  6
CONTINUOUS
 62
3
 66
1
 40
2.0E-01
 41
2.0E-01
 70
0
  0
VERTEX
  5
976
100
AcDbEntity
  8
199
100
AcDbVertex
100
AcDb2dVertex
 42
0.0
 10
-1.5600045E+02
 20
1.5199729E+02
 70
0
  0
VERTEX
  5
977
100
AcDbEntity
  8
199
100
AcDbVertex
100
AcDb2dVertex
 42
0.0
 10
-1.5600045E+02
 20
1.5999689E+02
 70
0
  0
SEQEND
  5
978
100
AcDbEntity
  0
TEXT
  5
979
100
AcDbEntity
  8
199
100
AcDbText
  6
CONTINUOUS
 62
1
 10
-9.7741861E+01
 20
1.6276966E+02
 40
2.500293
  1
XX
100
AcDbText
  0
TEXT
  5
97a
100
AcDbEntity
  8
199
100
AcDbText
  6
CONTINUOUS
 62
1
 10
-6.4736816E+01
 20
1.6276966E+02
 40
2.500293
  1
XX
100
AcDbText
  0
TEXT
  5
97b
100
AcDbEntity
  8
199
100
AcDbText
  6
CONTINUOUS
 62
1
 10
-3.1732612E+01
 20
1.6276966E+02
 40
2.500293
  1
XX
100
AcDbText
  0
TEXT
  5
97c
100
AcDbEntity
  8
199
100
AcDbText
  6
CONTINUOUS
 62
1
 10
-1.5274326E+02
 20
1.6276966E+02
 40
2.500293
  1
XX
100
AcDbText
  0
TEXT
  5
97d
100
AcDbEntity
  8
199
100
AcDbText
  6
CONTINUOUS
 62
1
 10
-1.6474097E+02
 20
1.6276966E+02
 40
2.500293
  1
XX
100
AcDbText
  0
TEXT
  5
97e
100
AcDbEntity
  8
199
100
AcDbText
  6
CONTINUOUS
 62
1
 10
-1.7673951E+02
 20
1.6276966E+02
 40
2.500293
  1
11
100
AcDbText
  0
POLYLINE
  5
97f
100
AcDbEntity
  8
199
100
AcDb2dPolyline
  6
CONTINUOUS
 62
3
 66
1
 40
2.0E-01
 41
2.0E-01
 70
0
  0
VERTEX
  5
980
100
AcDbEntity
  8
199
100
AcDbVertex
100
AcDb2dVertex
 42
0.0
 10
-1.8000007E+02
 20
1.6799648E+02
 70
0
  0
VERTEX
  5
981
100
AcDbEntity
  8
199
100
AcDbVertex
100
AcDb2dVertex
 42
0.0
 10
0.0
 20
1.6799648E+02
 70
0
  0
SEQEND
  5
982
100
AcDbEntity
  0
POLYLINE
  5
983
100
AcDbEntity
  8
199
100
AcDb2dPolyline
  6
CONTINUOUS
 62
3
 66
1
 40
2.0E-01
 41
2.0E-01
 70
0
  0
VERTEX
  5
984
100
AcDbEntity
  8
199
100
AcDbVertex
100
AcDb2dVertex
 42
0.0
 10
-3.4999897E+01
 20
1.6399668E+02
 70
0
  0
VERTEX
  5
985
100
AcDbEntity
  8
199
100
AcDbVertex
100
AcDb2dVertex
 42
0.0
 10
-3.4999897E+01
 20
1.6799648E+02
 70
0
  0
SEQEND
  5
986
100
AcDbEntity
  0
POLYLINE
  5
987
100
AcDbEntity
  8
199
100
AcDb2dPolyline
  6
CONTINUOUS
 62
3
 66
1
 40
2.0E-01
 41
2.0E-01
 70
0
  0
VERTEX
  5
988
100
AcDbEntity
  8
199
100
AcDbVertex
100
AcDb2dVertex
 42
0.0
 10
-1.0099989E+02
 20
1.5999689E+02
 70
0
  0
VERTEX
  5
989
100
AcDbEntity
  8
199
100
AcDbVertex
100
AcDb2dVertex
 42
0.0
 10
-1.0099989E+02
 20
1.6799648E+02
 70
0
  0
SEQEND
  5
98a
100
AcDbEntity
  0
POLYLINE
  5
98b
100
AcDbEntity
  8
199
100
AcDb2dPolyline
  6
CONTINUOUS
 62
3
 66
1
 40
2.0E-01
 41
2.0E-01
 70
0
  0
VERTEX
  5
98c
100
AcDbEntity
  8
199
100
AcDbVertex
100
AcDb2dVertex
 42
0.0
 10
-6.7999896E+01
 20
1.5999689E+02
 70
0
  0
VERTEX
  5
98d
100
AcDbEntity
  8
199
100
AcDbVertex
100
AcDb2dVertex
 42
0.0
 10
-6.7999896E+01
 20
1.6799648E+02
 70
0
  0
SEQEND
  5
98e
100
AcDbEntity
  0
POLYLINE
  5
98f
100
AcDbEntity
  8
199
100
AcDb2dPolyline
  6
CONTINUOUS
 62
3
 66
1
 40
2.0E-01
 41
2.0E-01
 70
0
  0
VERTEX
  5
990
100
AcDbEntity
  8
199
100
AcDbVertex
100
AcDb2dVertex
 42
0.0
 10
-3.4999897E+01
 20
1.5999689E+02
 70
0
  0
VERTEX
  5
991
100
AcDbEntity
  8
199
100
AcDbVertex
100
AcDb2dVertex
 42
0.0
 10
-3.4999897E+01
 20
1.6399668E+02
 70
0
  0
SEQEND
  5
992
100
AcDbEntity
  0
POLYLINE
  5
993
100
AcDbEntity
  8
199
100
AcDb2dPolyline
  6
CONTINUOUS
 62
3
 66
1
 40
2.0E-01
 41
2.0E-01
 70
0
  0
VERTEX
  5
994
100
AcDbEntity
  8
199
100
AcDbVertex
100
AcDb2dVertex
 42
0.0
 10
-1.6799984E+02
 20
1.5999689E+02
 70
0
  0
VERTEX
  5
995
100
AcDbEntity
  8
199
100
AcDbVertex
100
AcDb2dVertex
 42
0.0
 10
-1.6799984E+02
 20
1.6799648E+02
 70
0
  0
SEQEND
  5
996
100
AcDbEntity
  0
POLYLINE
  5
997
100
AcDbEntity
  8
199
100
AcDb2dPolyline
  6
CONTINUOUS
 62
3
 66
1
 40
2.0E-01
 41
2.0E-01
 70
0
  0
VERTEX
  5
998
100
AcDbEntity
  8
199
100
AcDbVertex
100
AcDb2dVertex
 42
0.0
 10
-1.5600045E+02
 20
1.5999689E+02
 70
0
  0
VERTEX
  5
999
100
AcDbEntity
  8
199
100
AcDbVertex
100
AcDb2dVertex
 42
0.0
 10
-1.5600045E+02
 20
1.6799648E+02
 70
0
  0
SEQEND
  5
99a
100
AcDbEntity
  0
TEXT
  5
99b
100
AcDbEntity
  8
199
100
AcDbText
  6
CONTINUOUS
 62
1
 10
-9.7741861E+01
 20
1.7076925E+02
 40
2.500293
  1
XX
100
AcDbText
  0
TEXT
  5
99c
100
AcDbEntity
  8
199
100
AcDbText
  6
CONTINUOUS
 62
1
 10
-6.4736816E+01
 20
1.7076925E+02
 40
2.500293
  1
XX
100
AcDbText
  0
TEXT
  5
99d
100
AcDbEntity
  8
199
100
AcDbText
  6
CONTINUOUS
 62
1
 10
-3.1732612E+01
 20
1.7076925E+02
 40
2.500293
  1
XX
100
AcDbText
  0
TEXT
  5
99e
100
AcDbEntity
  8
199
100
AcDbText
  6
CONTINUOUS
 62
1
 10
-1.5274326E+02
 20
1.7076925E+02
 40
2.500293
  1
XX
100
AcDbText
  0
TEXT
  5
99f
100
AcDbEntity
  8
199
100
AcDbText
  6
CONTINUOUS
 62
1
 10
-1.6474097E+02
 20
1.7076925E+02
 40
2.500293
  1
XX
100
AcDbText
  0
TEXT
  5
9a0
100
AcDbEntity
  8
199
100
AcDbText
  6
CONTINUOUS
 62
1
 10
-1.7673951E+02
 20
1.7076925E+02
 40
2.500293
  1
12
100
AcDbText
  0
POLYLINE
  5
9a1
100
AcDbEntity
  8
199
100
AcDb2dPolyline
  6
CONTINUOUS
 62
3
 66
1
 40
2.0E-01
 41
2.0E-01
 70
0
  0
VERTEX
  5
9a2
100
AcDbEntity
  8
199
100
AcDbVertex
100
AcDb2dVertex
 42
0.0
 10
-1.8000007E+02
 20
1.7599607E+02
 70
0
  0
VERTEX
  5
9a3
100
AcDbEntity
  8
199
100
AcDbVertex
100
AcDb2dVertex
 42
0.0
 10
0.0
 20
1.7599607E+02
 70
0
  0
SEQEND
  5
9a4
100
AcDbEntity
  0
POLYLINE
  5
9a5
100
AcDbEntity
  8
199
100
AcDb2dPolyline
  6
CONTINUOUS
 62
3
 66
1
 40
2.0E-01
 41
2.0E-01
 70
0
  0
VERTEX
  5
9a6
100
AcDbEntity
  8
199
100
AcDbVertex
100
AcDb2dVertex
 42
0.0
 10
-3.4999897E+01
 20
1.7199627E+02
 70
0
  0
VERTEX
  5
9a7
100
AcDbEntity
  8
199
100
AcDbVertex
100
AcDb2dVertex
 42
0.0
 10
-3.4999897E+01
 20
1.7599607E+02
 70
0
  0
SEQEND
  5
9a8
100
AcDbEntity
  0
POLYLINE
  5
9a9
100
AcDbEntity
  8
199
100
AcDb2dPolyline
  6
CONTINUOUS
 62
3
 66
1
 40
2.0E-01
 41
2.0E-01
 70
0
  0
VERTEX
  5
9aa
100
AcDbEntity
  8
199
100
AcDbVertex
100
AcDb2dVertex
 42
0.0
 10
-1.0099989E+02
 20
1.6799648E+02
 70
0
  0
VERTEX
  5
9ab
100
AcDbEntity
  8
199
100
AcDbVertex
100
AcDb2dVertex
 42
0.0
 10
-1.0099989E+02
 20
1.7599607E+02
 70
0
  0
SEQEND
  5
9ac
100
AcDbEntity
  0
POLYLINE
  5
9ad
100
AcDbEntity
  8
199
100
AcDb2dPolyline
  6
CONTINUOUS
 62
3
 66
1
 40
2.0E-01
 41
2.0E-01
 70
0
  0
VERTEX
  5
9ae
100
AcDbEntity
  8
199
100
AcDbVertex
100
AcDb2dVertex
 42
0.0
 10
-6.7999896E+01
 20
1.6799648E+02
 70
0
  0
VERTEX
  5
9af
100
AcDbEntity
  8
199
100
AcDbVertex
100
AcDb2dVertex
 42
0.0
 10
-6.7999896E+01
 20
1.7599607E+02
 70
0
  0
SEQEND
  5
9b0
100
AcDbEntity
  0
POLYLINE
  5
9b1
100
AcDbEntity
  8
199
100
AcDb2dPolyline
  6
CONTINUOUS
 62
3
 66
1
 40
2.0E-01
 41
2.0E-01
 70
0
  0
VERTEX
  5
9b2
100
AcDbEntity
  8
199
100
AcDbVertex
100
AcDb2dVertex
 42
0.0
 10
-3.4999897E+01
 20
1.6799648E+02
 70
0
  0
VERTEX
  5
9b3
100
AcDbEntity
  8
199
100
AcDbVertex
100
AcDb2dVertex
 42
0.0
 10
-3.4999897E+01
 20
1.7199627E+02
 70
0
  0
SEQEND
  5
9b4
100
AcDbEntity
  0
POLYLINE
  5
9b5
100
AcDbEntity
  8
199
100
AcDb2dPolyline
  6
CONTINUOUS
 62
3
 66
1
 40
2.0E-01
 41
2.0E-01
 70
0
  0
VERTEX
  5
9b6
100
AcDbEntity
  8
199
100
AcDbVertex
100
AcDb2dVertex
 42
0.0
 10
-1.6799984E+02
 20
1.6799648E+02
 70
0
  0
VERTEX
  5
9b7
100
AcDbEntity
  8
199
100
AcDbVertex
100
AcDb2dVertex
 42
0.0
 10
-1.6799984E+02
 20
1.7599607E+02
 70
0
  0
SEQEND
  5
9b8
100
AcDbEntity
  0
POLYLINE
  5
9b9
100
AcDbEntity
  8
199
100
AcDb2dPolyline
  6
CONTINUOUS
 62
3
 66
1
 40
2.0E-01
 41
2.0E-01
 70
0
  0
VERTEX
  5
9ba
100
AcDbEntity
  8
199
100
AcDbVertex
100
AcDb2dVertex
 42
0.0
 10
-1.5600045E+02
 20
1.6799648E+02
 70
0
  0
VERTEX
  5
9bb
100
AcDbEntity
  8
199
100
AcDbVertex
100
AcDb2dVertex
 42
0.0
 10
-1.5600045E+02
 20
1.7599607E+02
 70
0
  0
SEQEND
  5
9bc
100
AcDbEntity
  0
TEXT
  5
9bd
100
AcDbEntity
  8
199
100
AcDbText
  6
CONTINUOUS
 62
1
 10
-9.7741861E+01
 20
1.7876885E+02
 40
2.500293
  1
XX
100
AcDbText
  0
TEXT
  5
9be
100
AcDbEntity
  8
199
100
AcDbText
  6
CONTINUOUS
 62
1
 10
-6.4736816E+01
 20
1.7876885E+02
 40
2.500293
  1
XX
100
AcDbText
  0
TEXT
  5
9bf
100
AcDbEntity
  8
199
100
AcDbText
  6
CONTINUOUS
 62
1
 10
-3.1732612E+01
 20
1.7876885E+02
 40
2.500293
  1
XX
100
AcDbText
  0
TEXT
  5
9c0
100
AcDbEntity
  8
199
100
AcDbText
  6
CONTINUOUS
 62
1
 10
-1.5274326E+02
 20
1.7876885E+02
 40
2.500293
  1
XX
100
AcDbText
  0
TEXT
  5
9c1
100
AcDbEntity
  8
199
100
AcDbText
  6
CONTINUOUS
 62
1
 10
-1.6474097E+02
 20
1.7876885E+02
 40
2.500293
  1
XX
100
AcDbText
  0
TEXT
  5
9c2
100
AcDbEntity
  8
199
100
AcDbText
  6
CONTINUOUS
 62
1
 10
-1.7673951E+02
 20
1.7876885E+02
 40
2.500293
  1
13
100
AcDbText
  0
POLYLINE
  5
9c3
100
AcDbEntity
  8
199
100
AcDb2dPolyline
  6
CONTINUOUS
 62
3
 66
1
 40
2.0E-01
 41
2.0E-01
 70
0
  0
VERTEX
  5
9c4
100
AcDbEntity
  8
199
100
AcDbVertex
100
AcDb2dVertex
 42
0.0
 10
-1.8000007E+02
 20
1.8399566E+02
 70
0
  0
VERTEX
  5
9c5
100
AcDbEntity
  8
199
100
AcDbVertex
100
AcDb2dVertex
 42
0.0
 10
0.0
 20
1.8399566E+02
 70
0
  0
SEQEND
  5
9c6
100
AcDbEntity
  0
POLYLINE
  5
9c7
100
AcDbEntity
  8
199
100
AcDb2dPolyline
  6
CONTINUOUS
 62
3
 66
1
 40
2.0E-01
 41
2.0E-01
 70
0
  0
VERTEX
  5
9c8
100
AcDbEntity
  8
199
100
AcDbVertex
100
AcDb2dVertex
 42
0.0
 10
-3.4999897E+01
 20
1.7999587E+02
 70
0
  0
VERTEX
  5
9c9
100
AcDbEntity
  8
199
100
AcDbVertex
100
AcDb2dVertex
 42
0.0
 10
-3.4999897E+01
 20
1.8399566E+02
 70
0
  0
SEQEND
  5
9ca
100
AcDbEntity
  0
POLYLINE
  5
9cb
100
AcDbEntity
  8
199
100
AcDb2dPolyline
  6
CONTINUOUS
 62
3
 66
1
 40
2.0E-01
 41
2.0E-01
 70
0
  0
VERTEX
  5
9cc
100
AcDbEntity
  8
199
100
AcDbVertex
100
AcDb2dVertex
 42
0.0
 10
-1.0099989E+02
 20
1.7599607E+02
 70
0
  0
VERTEX
  5
9cd
100
AcDbEntity
  8
199
100
AcDbVertex
100
AcDb2dVertex
 42
0.0
 10
-1.0099989E+02
 20
1.8399566E+02
 70
0
  0
SEQEND
  5
9ce
100
AcDbEntity
  0
POLYLINE
  5
9cf
100
AcDbEntity
  8
199
100
AcDb2dPolyline
  6
CONTINUOUS
 62
3
 66
1
 40
2.0E-01
 41
2.0E-01
 70
0
  0
VERTEX
  5
9d0
100
AcDbEntity
  8
199
100
AcDbVertex
100
AcDb2dVertex
 42
0.0
 10
-6.7999896E+01
 20
1.7599607E+02
 70
0
  0
VERTEX
  5
9d1
100
AcDbEntity
  8
199
100
AcDbVertex
100
AcDb2dVertex
 42
0.0
 10
-6.7999896E+01
 20
1.8399566E+02
 70
0
  0
SEQEND
  5
9d2
100
AcDbEntity
  0
POLYLINE
  5
9d3
100
AcDbEntity
  8
199
100
AcDb2dPolyline
  6
CONTINUOUS
 62
3
 66
1
 40
2.0E-01
 41
2.0E-01
 70
0
  0
VERTEX
  5
9d4
100
AcDbEntity
  8
199
100
AcDbVertex
100
AcDb2dVertex
 42
0.0
 10
-3.4999897E+01
 20
1.7599607E+02
 70
0
  0
VERTEX
  5
9d5
100
AcDbEntity
  8
199
100
AcDbVertex
100
AcDb2dVertex
 42
0.0
 10
-3.4999897E+01
 20
1.7999587E+02
 70
0
  0
SEQEND
  5
9d6
100
AcDbEntity
  0
POLYLINE
  5
9d7
100
AcDbEntity
  8
199
100
AcDb2dPolyline
  6
CONTINUOUS
 62
3
 66
1
 40
2.0E-01
 41
2.0E-01
 70
0
  0
VERTEX
  5
9d8
100
AcDbEntity
  8
199
100
AcDbVertex
100
AcDb2dVertex
 42
0.0
 10
-1.6799984E+02
 20
1.7599607E+02
 70
0
  0
VERTEX
  5
9d9
100
AcDbEntity
  8
199
100
AcDbVertex
100
AcDb2dVertex
 42
0.0
 10
-1.6799984E+02
 20
1.8399566E+02
 70
0
  0
SEQEND
  5
9da
100
AcDbEntity
  0
POLYLINE
  5
9db
100
AcDbEntity
  8
199
100
AcDb2dPolyline
  6
CONTINUOUS
 62
3
 66
1
 40
2.0E-01
 41
2.0E-01
 70
0
  0
VERTEX
  5
9dc
100
AcDbEntity
  8
199
100
AcDbVertex
100
AcDb2dVertex
 42
0.0
 10
-1.5600045E+02
 20
1.7599607E+02
 70
0
  0
VERTEX
  5
9dd
100
AcDbEntity
  8
199
100
AcDbVertex
100
AcDb2dVertex
 42
0.0
 10
-1.5600045E+02
 20
1.8399566E+02
 70
0
  0
SEQEND
  5
9de
100
AcDbEntity
  0
TEXT
  5
9df
100
AcDbEntity
  8
199
100
AcDbText
  6
CONTINUOUS
 62
1
 10
-9.7741861E+01
 20
1.8676844E+02
 40
2.500293
  1
XX
100
AcDbText
  0
TEXT
  5
9e0
100
AcDbEntity
  8
199
100
AcDbText
  6
CONTINUOUS
 62
1
 10
-6.4736816E+01
 20
1.8676844E+02
 40
2.500293
  1
XX
100
AcDbText
  0
TEXT
  5
9e1
100
AcDbEntity
  8
199
100
AcDbText
  6
CONTINUOUS
 62
1
 10
-3.1732612E+01
 20
1.8676844E+02
 40
2.500293
  1
XX
100
AcDbText
  0
TEXT
  5
9e2
100
AcDbEntity
  8
199
100
AcDbText
  6
CONTINUOUS
 62
1
 10
-1.5274326E+02
 20
1.8676844E+02
 40
2.500293
  1
XX
100
AcDbText
  0
TEXT
  5
9e3
100
AcDbEntity
  8
199
100
AcDbText
  6
CONTINUOUS
 62
1
 10
-1.6474097E+02
 20
1.8676844E+02
 40
2.500293
  1
XX
100
AcDbText
  0
TEXT
  5
9e4
100
AcDbEntity
  8
199
100
AcDbText
  6
CONTINUOUS
 62
1
 10
-1.7673951E+02
 20
1.8676844E+02
 40
2.500293
  1
14
100
AcDbText
  0
POLYLINE
  5
9e5
100
AcDbEntity
  8
199
100
AcDb2dPolyline
  6
CONTINUOUS
 62
3
 66
1
 40
2.0E-01
 41
2.0E-01
 70
0
  0
VERTEX
  5
9e6
100
AcDbEntity
  8
199
100
AcDbVertex
100
AcDb2dVertex
 42
0.0
 10
-1.8000007E+02
 20
1.9199525E+02
 70
0
  0
VERTEX
  5
9e7
100
AcDbEntity
  8
199
100
AcDbVertex
100
AcDb2dVertex
 42
0.0
 10
0.0
 20
1.9199525E+02
 70
0
  0
SEQEND
  5
9e8
100
AcDbEntity
  0
POLYLINE
  5
9e9
100
AcDbEntity
  8
199
100
AcDb2dPolyline
  6
CONTINUOUS
 62
3
 66
1
 40
2.0E-01
 41
2.0E-01
 70
0
  0
VERTEX
  5
9ea
100
AcDbEntity
  8
199
100
AcDbVertex
100
AcDb2dVertex
 42
0.0
 10
-3.4999897E+01
 20
1.8799546E+02
 70
0
  0
VERTEX
  5
9eb
100
AcDbEntity
  8
199
100
AcDbVertex
100
AcDb2dVertex
 42
0.0
 10
-3.4999897E+01
 20
1.9199525E+02
 70
0
  0
SEQEND
  5
9ec
100
AcDbEntity
  0
POLYLINE
  5
9ed
100
AcDbEntity
  8
199
100
AcDb2dPolyline
  6
CONTINUOUS
 62
3
 66
1
 40
2.0E-01
 41
2.0E-01
 70
0
  0
VERTEX
  5
9ee
100
AcDbEntity
  8
199
100
AcDbVertex
100
AcDb2dVertex
 42
0.0
 10
-1.0099989E+02
 20
1.8399566E+02
 70
0
  0
VERTEX
  5
9ef
100
AcDbEntity
  8
199
100
AcDbVertex
100
AcDb2dVertex
 42
0.0
 10
-1.0099989E+02
 20
1.9199525E+02
 70
0
  0
SEQEND
  5
9f0
100
AcDbEntity
  0
POLYLINE
  5
9f1
100
AcDbEntity
  8
199
100
AcDb2dPolyline
  6
CONTINUOUS
 62
3
 66
1
 40
2.0E-01
 41
2.0E-01
 70
0
  0
VERTEX
  5
9f2
100
AcDbEntity
  8
199
100
AcDbVertex
100
AcDb2dVertex
 42
0.0
 10
-6.7999896E+01
 20
1.8399566E+02
 70
0
  0
VERTEX
  5
9f3
100
AcDbEntity
  8
199
100
AcDbVertex
100
AcDb2dVertex
 42
0.0
 10
-6.7999896E+01
 20
1.9199525E+02
 70
0
  0
SEQEND
  5
9f4
100
AcDbEntity
  0
POLYLINE
  5
9f5
100
AcDbEntity
  8
199
100
AcDb2dPolyline
  6
CONTINUOUS
 62
3
 66
1
 40
2.0E-01
 41
2.0E-01
 70
0
  0
VERTEX
  5
9f6
100
AcDbEntity
  8
199
100
AcDbVertex
100
AcDb2dVertex
 42
0.0
 10
-3.4999897E+01
 20
1.8399566E+02
 70
0
  0
VERTEX
  5
9f7
100
AcDbEntity
  8
199
100
AcDbVertex
100
AcDb2dVertex
 42
0.0
 10
-3.4999897E+01
 20
1.8799546E+02
 70
0
  0
SEQEND
  5
9f8
100
AcDbEntity
  0
POLYLINE
  5
9f9
100
AcDbEntity
  8
199
100
AcDb2dPolyline
  6
CONTINUOUS
 62
3
 66
1
 40
2.0E-01
 41
2.0E-01
 70
0
  0
VERTEX
  5
9fa
100
AcDbEntity
  8
199
100
AcDbVertex
100
AcDb2dVertex
 42
0.0
 10
-1.6799984E+02
 20
1.8399566E+02
 70
0
  0
VERTEX
  5
9fb
100
AcDbEntity
  8
199
100
AcDbVertex
100
AcDb2dVertex
 42
0.0
 10
-1.6799984E+02
 20
1.9199525E+02
 70
0
  0
SEQEND
  5
9fc
100
AcDbEntity
  0
POLYLINE
  5
9fd
100
AcDbEntity
  8
199
100
AcDb2dPolyline
  6
CONTINUOUS
 62
3
 66
1
 40
2.0E-01
 41
2.0E-01
 70
0
  0
VERTEX
  5
9fe
100
AcDbEntity
  8
199
100
AcDbVertex
100
AcDb2dVertex
 42
0.0
 10
-1.5600045E+02
 20
1.8399566E+02
 70
0
  0
VERTEX
  5
9ff
100
AcDbEntity
  8
199
100
AcDbVertex
100
AcDb2dVertex
 42
0.0
 10
-1.5600045E+02
 20
1.9199525E+02
 70
0
  0
SEQEND
  5
a00
100
AcDbEntity
  0
TEXT
  5
a01
100
AcDbEntity
  8
199
100
AcDbText
  6
CONTINUOUS
 62
1
 10
-9.7741861E+01
 20
1.9476803E+02
 40
2.500293
  1
XX
100
AcDbText
  0
TEXT
  5
a02
100
AcDbEntity
  8
199
100
AcDbText
  6
CONTINUOUS
 62
1
 10
-6.4736816E+01
 20
1.9476803E+02
 40
2.500293
  1
XX
100
AcDbText
  0
TEXT
  5
a03
100
AcDbEntity
  8
199
100
AcDbText
  6
CONTINUOUS
 62
1
 10
-3.1732612E+01
 20
1.9476803E+02
 40
2.500293
  1
XX
100
AcDbText
  0
TEXT
  5
a04
100
AcDbEntity
  8
199
100
AcDbText
  6
CONTINUOUS
 62
1
 10
-1.5274326E+02
 20
1.9476803E+02
 40
2.500293
  1
XX
100
AcDbText
  0
TEXT
  5
a05
100
AcDbEntity
  8
199
100
AcDbText
  6
CONTINUOUS
 62
1
 10
-1.6474097E+02
 20
1.9476803E+02
 40
2.500293
  1
XX
100
AcDbText
  0
TEXT
  5
a06
100
AcDbEntity
  8
199
100
AcDbText
  6
CONTINUOUS
 62
1
 10
-1.7673951E+02
 20
1.9476803E+02
 40
2.500293
  1
15
100
AcDbText
  0
POLYLINE
  5
a07
100
AcDbEntity
  8
199
100
AcDb2dPolyline
  6
CONTINUOUS
 62
3
 66
1
 40
2.0E-01
 41
2.0E-01
 70
0
  0
VERTEX
  5
a08
100
AcDbEntity
  8
199
100
AcDbVertex
100
AcDb2dVertex
 42
0.0
 10
-1.8000007E+02
 20
1.9999485E+02
 70
0
  0
VERTEX
  5
a09
100
AcDbEntity
  8
199
100
AcDbVertex
100
AcDb2dVertex
 42
0.0
 10
0.0
 20
1.9999485E+02
 70
0
  0
SEQEND
  5
a0a
100
AcDbEntity
  0
POLYLINE
  5
a0b
100
AcDbEntity
  8
199
100
AcDb2dPolyline
  6
CONTINUOUS
 62
3
 66
1
 40
2.0E-01
 41
2.0E-01
 70
0
  0
VERTEX
  5
a0c
100
AcDbEntity
  8
199
100
AcDbVertex
100
AcDb2dVertex
 42
0.0
 10
-3.4999897E+01
 20
1.9599505E+02
 70
0
  0
VERTEX
  5
a0d
100
AcDbEntity
  8
199
100
AcDbVertex
100
AcDb2dVertex
 42
0.0
 10
-3.4999897E+01
 20
1.9999485E+02
 70
0
  0
SEQEND
  5
a0e
100
AcDbEntity
  0
POLYLINE
  5
a0f
100
AcDbEntity
  8
199
100
AcDb2dPolyline
  6
CONTINUOUS
 62
3
 66
1
 40
2.0E-01
 41
2.0E-01
 70
0
  0
VERTEX
  5
a10
100
AcDbEntity
  8
199
100
AcDbVertex
100
AcDb2dVertex
 42
0.0
 10
-1.0099989E+02
 20
1.9199525E+02
 70
0
  0
VERTEX
  5
a11
100
AcDbEntity
  8
199
100
AcDbVertex
100
AcDb2dVertex
 42
0.0
 10
-1.0099989E+02
 20
1.9999485E+02
 70
0
  0
SEQEND
  5
a12
100
AcDbEntity
  0
POLYLINE
  5
a13
100
AcDbEntity
  8
199
100
AcDb2dPolyline
  6
CONTINUOUS
 62
3
 66
1
 40
2.0E-01
 41
2.0E-01
 70
0
  0
VERTEX
  5
a14
100
AcDbEntity
  8
199
100
AcDbVertex
100
AcDb2dVertex
 42
0.0
 10
-6.7999896E+01
 20
1.9199525E+02
 70
0
  0
VERTEX
  5
a15
100
AcDbEntity
  8
199
100
AcDbVertex
100
AcDb2dVertex
 42
0.0
 10
-6.7999896E+01
 20
1.9999485E+02
 70
0
  0
SEQEND
  5
a16
100
AcDbEntity
  0
POLYLINE
  5
a17
100
AcDbEntity
  8
199
100
AcDb2dPolyline
  6
CONTINUOUS
 62
3
 66
1
 40
2.0E-01
 41
2.0E-01
 70
0
  0
VERTEX
  5
a18
100
AcDbEntity
  8
199
100
AcDbVertex
100
AcDb2dVertex
 42
0.0
 10
-3.4999897E+01
 20
1.9199525E+02
 70
0
  0
VERTEX
  5
a19
100
AcDbEntity
  8
199
100
AcDbVertex
100
AcDb2dVertex
 42
0.0
 10
-3.4999897E+01
 20
1.9599505E+02
 70
0
  0
SEQEND
  5
a1a
100
AcDbEntity
  0
POLYLINE
  5
a1b
100
AcDbEntity
  8
199
100
AcDb2dPolyline
  6
CONTINUOUS
 62
3
 66
1
 40
2.0E-01
 41
2.0E-01
 70
0
  0
VERTEX
  5
a1c
100
AcDbEntity
  8
199
100
AcDbVertex
100
AcDb2dVertex
 42
0.0
 10
-1.6799984E+02
 20
1.9199525E+02
 70
0
  0
VERTEX
  5
a1d
100
AcDbEntity
  8
199
100
AcDbVertex
100
AcDb2dVertex
 42
0.0
 10
-1.6799984E+02
 20
1.9999485E+02
 70
0
  0
SEQEND
  5
a1e
100
AcDbEntity
  0
POLYLINE
  5
a1f
100
AcDbEntity
  8
199
100
AcDb2dPolyline
  6
CONTINUOUS
 62
3
 66
1
 40
2.0E-01
 41
2.0E-01
 70
0
  0
VERTEX
  5
a20
100
AcDbEntity
  8
199
100
AcDbVertex
100
AcDb2dVertex
 42
0.0
 10
-1.5600045E+02
 20
1.9199525E+02
 70
0
  0
VERTEX
  5
a21
100
AcDbEntity
  8
199
100
AcDbVertex
100
AcDb2dVertex
 42
0.0
 10
-1.5600045E+02
 20
1.9999485E+02
 70
0
  0
SEQEND
  5
a22
100
AcDbEntity
  0
TEXT
  5
a23
100
AcDbEntity
  8
199
100
AcDbText
  6
CONTINUOUS
 62
1
 10
-9.7741861E+01
 20
2.0276762E+02
 40
2.500293
  1
XX
100
AcDbText
  0
TEXT
  5
a24
100
AcDbEntity
  8
199
100
AcDbText
  6
CONTINUOUS
 62
1
 10
-6.4736816E+01
 20
2.0276762E+02
 40
2.500293
  1
XX
100
AcDbText
  0
TEXT
  5
a25
100
AcDbEntity
  8
199
100
AcDbText
  6
CONTINUOUS
 62
1
 10
-3.1732612E+01
 20
2.0276762E+02
 40
2.500293
  1
XX
100
AcDbText
  0
TEXT
  5
a26
100
AcDbEntity
  8
199
100
AcDbText
  6
CONTINUOUS
 62
1
 10
-1.5274326E+02
 20
2.0276762E+02
 40
2.500293
  1
XX
100
AcDbText
  0
TEXT
  5
a27
100
AcDbEntity
  8
199
100
AcDbText
  6
CONTINUOUS
 62
1
 10
-1.6474097E+02
 20
2.0276762E+02
 40
2.500293
  1
XX
100
AcDbText
  0
TEXT
  5
a28
100
AcDbEntity
  8
199
100
AcDbText
  6
CONTINUOUS
 62
1
 10
-1.7673951E+02
 20
2.0276762E+02
 40
2.500293
  1
16
100
AcDbText
  0
POLYLINE
  5
a29
100
AcDbEntity
  8
199
100
AcDb2dPolyline
  6
CONTINUOUS
 62
3
 66
1
 40
2.0E-01
 41
2.0E-01
 70
0
  0
VERTEX
  5
a2a
100
AcDbEntity
  8
199
100
AcDbVertex
100
AcDb2dVertex
 42
0.0
 10
-1.8000007E+02
 20
2.0799444E+02
 70
0
  0
VERTEX
  5
a2b
100
AcDbEntity
  8
199
100
AcDbVertex
100
AcDb2dVertex
 42
0.0
 10
0.0
 20
2.0799444E+02
 70
0
  0
SEQEND
  5
a2c
100
AcDbEntity
  0
POLYLINE
  5
a2d
100
AcDbEntity
  8
199
100
AcDb2dPolyline
  6
CONTINUOUS
 62
3
 66
1
 40
2.0E-01
 41
2.0E-01
 70
0
  0
VERTEX
  5
a2e
100
AcDbEntity
  8
199
100
AcDbVertex
100
AcDb2dVertex
 42
0.0
 10
-3.4999897E+01
 20
2.0399464E+02
 70
0
  0
VERTEX
  5
a2f
100
AcDbEntity
  8
199
100
AcDbVertex
100
AcDb2dVertex
 42
0.0
 10
-3.4999897E+01
 20
2.0799444E+02
 70
0
  0
SEQEND
  5
a30
100
AcDbEntity
  0
POLYLINE
  5
a31
100
AcDbEntity
  8
199
100
AcDb2dPolyline
  6
CONTINUOUS
 62
3
 66
1
 40
2.0E-01
 41
2.0E-01
 70
0
  0
VERTEX
  5
a32
100
AcDbEntity
  8
199
100
AcDbVertex
100
AcDb2dVertex
 42
0.0
 10
-1.0099989E+02
 20
1.9999485E+02
 70
0
  0
VERTEX
  5
a33
100
AcDbEntity
  8
199
100
AcDbVertex
100
AcDb2dVertex
 42
0.0
 10
-1.0099989E+02
 20
2.0799444E+02
 70
0
  0
SEQEND
  5
a34
100
AcDbEntity
  0
POLYLINE
  5
a35
100
AcDbEntity
  8
199
100
AcDb2dPolyline
  6
CONTINUOUS
 62
3
 66
1
 40
2.0E-01
 41
2.0E-01
 70
0
  0
VERTEX
  5
a36
100
AcDbEntity
  8
199
100
AcDbVertex
100
AcDb2dVertex
 42
0.0
 10
-6.7999896E+01
 20
1.9999485E+02
 70
0
  0
VERTEX
  5
a37
100
AcDbEntity
  8
199
100
AcDbVertex
100
AcDb2dVertex
 42
0.0
 10
-6.7999896E+01
 20
2.0799444E+02
 70
0
  0
SEQEND
  5
a38
100
AcDbEntity
  0
POLYLINE
  5
a39
100
AcDbEntity
  8
199
100
AcDb2dPolyline
  6
CONTINUOUS
 62
3
 66
1
 40
2.0E-01
 41
2.0E-01
 70
0
  0
VERTEX
  5
a3a
100
AcDbEntity
  8
199
100
AcDbVertex
100
AcDb2dVertex
 42
0.0
 10
-3.4999897E+01
 20
1.9999485E+02
 70
0
  0
VERTEX
  5
a3b
100
AcDbEntity
  8
199
100
AcDbVertex
100
AcDb2dVertex
 42
0.0
 10
-3.4999897E+01
 20
2.0399464E+02
 70
0
  0
SEQEND
  5
a3c
100
AcDbEntity
  0
POLYLINE
  5
a3d
100
AcDbEntity
  8
199
100
AcDb2dPolyline
  6
CONTINUOUS
 62
3
 66
1
 40
2.0E-01
 41
2.0E-01
 70
0
  0
VERTEX
  5
a3e
100
AcDbEntity
  8
199
100
AcDbVertex
100
AcDb2dVertex
 42
0.0
 10
-1.6799984E+02
 20
1.9999485E+02
 70
0
  0
VERTEX
  5
a3f
100
AcDbEntity
  8
199
100
AcDbVertex
100
AcDb2dVertex
 42
0.0
 10
-1.6799984E+02
 20
2.0799444E+02
 70
0
  0
SEQEND
  5
a40
100
AcDbEntity
  0
POLYLINE
  5
a41
100
AcDbEntity
  8
199
100
AcDb2dPolyline
  6
CONTINUOUS
 62
3
 66
1
 40
2.0E-01
 41
2.0E-01
 70
0
  0
VERTEX
  5
a42
100
AcDbEntity
  8
199
100
AcDbVertex
100
AcDb2dVertex
 42
0.0
 10
-1.5600045E+02
 20
1.9999485E+02
 70
0
  0
VERTEX
  5
a43
100
AcDbEntity
  8
199
100
AcDbVertex
100
AcDb2dVertex
 42
0.0
 10
-1.5600045E+02
 20
2.0799444E+02
 70
0
  0
SEQEND
  5
a44
100
AcDbEntity
  0
TEXT
  5
a45
100
AcDbEntity
  8
199
100
AcDbText
  6
CONTINUOUS
 62
1
 10
-9.7741861E+01
 20
2.1076721E+02
 40
2.500293
  1
XX
100
AcDbText
  0
TEXT
  5
a46
100
AcDbEntity
  8
199
100
AcDbText
  6
CONTINUOUS
 62
1
 10
-6.4736816E+01
 20
2.1076721E+02
 40
2.500293
  1
XX
100
AcDbText
  0
TEXT
  5
a47
100
AcDbEntity
  8
199
100
AcDbText
  6
CONTINUOUS
 62
1
 10
-3.1732612E+01
 20
2.1076721E+02
 40
2.500293
  1
XX
100
AcDbText
  0
TEXT
  5
a48
100
AcDbEntity
  8
199
100
AcDbText
  6
CONTINUOUS
 62
1
 10
-1.5274326E+02
 20
2.1076721E+02
 40
2.500293
  1
XX
100
AcDbText
  0
TEXT
  5
a49
100
AcDbEntity
  8
199
100
AcDbText
  6
CONTINUOUS
 62
1
 10
-1.6474097E+02
 20
2.1076721E+02
 40
2.500293
  1
XX
100
AcDbText
  0
TEXT
  5
a4a
100
AcDbEntity
  8
199
100
AcDbText
  6
CONTINUOUS
 62
1
 10
-1.7673951E+02
 20
2.1076721E+02
 40
2.500293
  1
17
100
AcDbText
  0
POLYLINE
  5
a4b
100
AcDbEntity
  8
199
100
AcDb2dPolyline
  6
CONTINUOUS
 62
3
 66
1
 40
2.0E-01
 41
2.0E-01
 70
0
  0
VERTEX
  5
a4c
100
AcDbEntity
  8
199
100
AcDbVertex
100
AcDb2dVertex
 42
0.0
 10
-1.8000007E+02
 20
2.1599403E+02
 70
0
  0
VERTEX
  5
a4d
100
AcDbEntity
  8
199
100
AcDbVertex
100
AcDb2dVertex
 42
0.0
 10
0.0
 20
2.1599403E+02
 70
0
  0
SEQEND
  5
a4e
100
AcDbEntity
  0
POLYLINE
  5
a4f
100
AcDbEntity
  8
199
100
AcDb2dPolyline
  6
CONTINUOUS
 62
3
 66
1
 40
2.0E-01
 41
2.0E-01
 70
0
  0
VERTEX
  5
a50
100
AcDbEntity
  8
199
100
AcDbVertex
100
AcDb2dVertex
 42
0.0
 10
-3.4999897E+01
 20
2.1199423E+02
 70
0
  0
VERTEX
  5
a51
100
AcDbEntity
  8
199
100
AcDbVertex
100
AcDb2dVertex
 42
0.0
 10
-3.4999897E+01
 20
2.1599403E+02
 70
0
  0
SEQEND
  5
a52
100
AcDbEntity
  0
POLYLINE
  5
a53
100
AcDbEntity
  8
199
100
AcDb2dPolyline
  6
CONTINUOUS
 62
3
 66
1
 40
2.0E-01
 41
2.0E-01
 70
0
  0
VERTEX
  5
a54
100
AcDbEntity
  8
199
100
AcDbVertex
100
AcDb2dVertex
 42
0.0
 10
-1.0099989E+02
 20
2.0799444E+02
 70
0
  0
VERTEX
  5
a55
100
AcDbEntity
  8
199
100
AcDbVertex
100
AcDb2dVertex
 42
0.0
 10
-1.0099989E+02
 20
2.1599403E+02
 70
0
  0
SEQEND
  5
a56
100
AcDbEntity
  0
POLYLINE
  5
a57
100
AcDbEntity
  8
199
100
AcDb2dPolyline
  6
CONTINUOUS
 62
3
 66
1
 40
2.0E-01
 41
2.0E-01
 70
0
  0
VERTEX
  5
a58
100
AcDbEntity
  8
199
100
AcDbVertex
100
AcDb2dVertex
 42
0.0
 10
-6.7999896E+01
 20
2.0799444E+02
 70
0
  0
VERTEX
  5
a59
100
AcDbEntity
  8
199
100
AcDbVertex
100
AcDb2dVertex
 42
0.0
 10
-6.7999896E+01
 20
2.1599403E+02
 70
0
  0
SEQEND
  5
a5a
100
AcDbEntity
  0
POLYLINE
  5
a5b
100
AcDbEntity
  8
199
100
AcDb2dPolyline
  6
CONTINUOUS
 62
3
 66
1
 40
2.0E-01
 41
2.0E-01
 70
0
  0
VERTEX
  5
a5c
100
AcDbEntity
  8
199
100
AcDbVertex
100
AcDb2dVertex
 42
0.0
 10
-3.4999897E+01
 20
2.0799444E+02
 70
0
  0
VERTEX
  5
a5d
100
AcDbEntity
  8
199
100
AcDbVertex
100
AcDb2dVertex
 42
0.0
 10
-3.4999897E+01
 20
2.1199423E+02
 70
0
  0
SEQEND
  5
a5e
100
AcDbEntity
  0
POLYLINE
  5
a5f
100
AcDbEntity
  8
199
100
AcDb2dPolyline
  6
CONTINUOUS
 62
3
 66
1
 40
2.0E-01
 41
2.0E-01
 70
0
  0
VERTEX
  5
a60
100
AcDbEntity
  8
199
100
AcDbVertex
100
AcDb2dVertex
 42
0.0
 10
-1.6799984E+02
 20
2.0799444E+02
 70
0
  0
VERTEX
  5
a61
100
AcDbEntity
  8
199
100
AcDbVertex
100
AcDb2dVertex
 42
0.0
 10
-1.6799984E+02
 20
2.1599403E+02
 70
0
  0
SEQEND
  5
a62
100
AcDbEntity
  0
POLYLINE
  5
a63
100
AcDbEntity
  8
199
100
AcDb2dPolyline
  6
CONTINUOUS
 62
3
 66
1
 40
2.0E-01
 41
2.0E-01
 70
0
  0
VERTEX
  5
a64
100
AcDbEntity
  8
199
100
AcDbVertex
100
AcDb2dVertex
 42
0.0
 10
-1.5600045E+02
 20
2.0799444E+02
 70
0
  0
VERTEX
  5
a65
100
AcDbEntity
  8
199
100
AcDbVertex
100
AcDb2dVertex
 42
0.0
 10
-1.5600045E+02
 20
2.1599403E+02
 70
0
  0
SEQEND
  5
a66
100
AcDbEntity
  0
TEXT
  5
a67
100
AcDbEntity
  8
199
100
AcDbText
  6
CONTINUOUS
 62
1
 10
-9.7741861E+01
 20
2.1876681E+02
 40
2.500293
  1
XX
100
AcDbText
  0
TEXT
  5
a68
100
AcDbEntity
  8
199
100
AcDbText
  6
CONTINUOUS
 62
1
 10
-6.4736816E+01
 20
2.1876681E+02
 40
2.500293
  1
XX
100
AcDbText
  0
TEXT
  5
a69
100
AcDbEntity
  8
199
100
AcDbText
  6
CONTINUOUS
 62
1
 10
-3.1732612E+01
 20
2.1876681E+02
 40
2.500293
  1
XX
100
AcDbText
  0
TEXT
  5
a6a
100
AcDbEntity
  8
199
100
AcDbText
  6
CONTINUOUS
 62
1
 10
-1.5274326E+02
 20
2.1876681E+02
 40
2.500293
  1
XX
100
AcDbText
  0
TEXT
  5
a6b
100
AcDbEntity
  8
199
100
AcDbText
  6
CONTINUOUS
 62
1
 10
-1.6474097E+02
 20
2.1876681E+02
 40
2.500293
  1
XX
100
AcDbText
  0
TEXT
  5
a6c
100
AcDbEntity
  8
199
100
AcDbText
  6
CONTINUOUS
 62
1
 10
-1.7673951E+02
 20
2.1876681E+02
 40
2.500293
  1
18
100
AcDbText
  0
POLYLINE
  5
a6d
100
AcDbEntity
  8
199
100
AcDb2dPolyline
  6
CONTINUOUS
 62
3
 66
1
 40
2.0E-01
 41
2.0E-01
 70
0
  0
VERTEX
  5
a6e
100
AcDbEntity
  8
199
100
AcDbVertex
100
AcDb2dVertex
 42
0.0
 10
-1.8000007E+02
 20
2.2399362E+02
 70
0
  0
VERTEX
  5
a6f
100
AcDbEntity
  8
199
100
AcDbVertex
100
AcDb2dVertex
 42
0.0
 10
0.0
 20
2.2399362E+02
 70
0
  0
SEQEND
  5
a70
100
AcDbEntity
  0
POLYLINE
  5
a71
100
AcDbEntity
  8
199
100
AcDb2dPolyline
  6
CONTINUOUS
 62
3
 66
1
 40
2.0E-01
 41
2.0E-01
 70
0
  0
VERTEX
  5
a72
100
AcDbEntity
  8
199
100
AcDbVertex
100
AcDb2dVertex
 42
0.0
 10
-3.4999897E+01
 20
2.1999383E+02
 70
0
  0
VERTEX
  5
a73
100
AcDbEntity
  8
199
100
AcDbVertex
100
AcDb2dVertex
 42
0.0
 10
-3.4999897E+01
 20
2.2399362E+02
 70
0
  0
SEQEND
  5
a74
100
AcDbEntity
  0
POLYLINE
  5
a75
100
AcDbEntity
  8
199
100
AcDb2dPolyline
  6
CONTINUOUS
 62
3
 66
1
 40
2.0E-01
 41
2.0E-01
 70
0
  0
VERTEX
  5
a76
100
AcDbEntity
  8
199
100
AcDbVertex
100
AcDb2dVertex
 42
0.0
 10
-1.0099989E+02
 20
2.1599403E+02
 70
0
  0
VERTEX
  5
a77
100
AcDbEntity
  8
199
100
AcDbVertex
100
AcDb2dVertex
 42
0.0
 10
-1.0099989E+02
 20
2.2399362E+02
 70
0
  0
SEQEND
  5
a78
100
AcDbEntity
  0
POLYLINE
  5
a79
100
AcDbEntity
  8
199
100
AcDb2dPolyline
  6
CONTINUOUS
 62
3
 66
1
 40
2.0E-01
 41
2.0E-01
 70
0
  0
VERTEX
  5
a7a
100
AcDbEntity
  8
199
100
AcDbVertex
100
AcDb2dVertex
 42
0.0
 10
-6.7999896E+01
 20
2.1599403E+02
 70
0
  0
VERTEX
  5
a7b
100
AcDbEntity
  8
199
100
AcDbVertex
100
AcDb2dVertex
 42
0.0
 10
-6.7999896E+01
 20
2.2399362E+02
 70
0
  0
SEQEND
  5
a7c
100
AcDbEntity
  0
POLYLINE
  5
a7d
100
AcDbEntity
  8
199
100
AcDb2dPolyline
  6
CONTINUOUS
 62
3
 66
1
 40
2.0E-01
 41
2.0E-01
 70
0
  0
VERTEX
  5
a7e
100
AcDbEntity
  8
199
100
AcDbVertex
100
AcDb2dVertex
 42
0.0
 10
-3.4999897E+01
 20
2.1599403E+02
 70
0
  0
VERTEX
  5
a7f
100
AcDbEntity
  8
199
100
AcDbVertex
100
AcDb2dVertex
 42
0.0
 10
-3.4999897E+01
 20
2.1999383E+02
 70
0
  0
SEQEND
  5
a80
100
AcDbEntity
  0
POLYLINE
  5
a81
100
AcDbEntity
  8
199
100
AcDb2dPolyline
  6
CONTINUOUS
 62
3
 66
1
 40
2.0E-01
 41
2.0E-01
 70
0
  0
VERTEX
  5
a82
100
AcDbEntity
  8
199
100
AcDbVertex
100
AcDb2dVertex
 42
0.0
 10
-1.6799984E+02
 20
2.1599403E+02
 70
0
  0
VERTEX
  5
a83
100
AcDbEntity
  8
199
100
AcDbVertex
100
AcDb2dVertex
 42
0.0
 10
-1.6799984E+02
 20
2.2399362E+02
 70
0
  0
SEQEND
  5
a84
100
AcDbEntity
  0
POLYLINE
  5
a85
100
AcDbEntity
  8
199
100
AcDb2dPolyline
  6
CONTINUOUS
 62
3
 66
1
 40
2.0E-01
 41
2.0E-01
 70
0
  0
VERTEX
  5
a86
100
AcDbEntity
  8
199
100
AcDbVertex
100
AcDb2dVertex
 42
0.0
 10
-1.5600045E+02
 20
2.1599403E+02
 70
0
  0
VERTEX
  5
a87
100
AcDbEntity
  8
199
100
AcDbVertex
100
AcDb2dVertex
 42
0.0
 10
-1.5600045E+02
 20
2.2399362E+02
 70
0
  0
SEQEND
  5
a88
100
AcDbEntity
  0
TEXT
  5
a89
100
AcDbEntity
  8
199
100
AcDbText
  6
CONTINUOUS
 62
1
 10
-9.7741861E+01
 20
2.267664E+02
 40
2.500293
  1
XX
100
AcDbText
  0
TEXT
  5
a8a
100
AcDbEntity
  8
199
100
AcDbText
  6
CONTINUOUS
 62
1
 10
-6.4736816E+01
 20
2.267664E+02
 40
2.500293
  1
XX
100
AcDbText
  0
TEXT
  5
a8b
100
AcDbEntity
  8
199
100
AcDbText
  6
CONTINUOUS
 62
1
 10
-3.1732612E+01
 20
2.267664E+02
 40
2.500293
  1
XX
100
AcDbText
  0
TEXT
  5
a8c
100
AcDbEntity
  8
199
100
AcDbText
  6
CONTINUOUS
 62
1
 10
-1.5274326E+02
 20
2.267664E+02
 40
2.500293
  1
XX
100
AcDbText
  0
TEXT
  5
a8d
100
AcDbEntity
  8
199
100
AcDbText
  6
CONTINUOUS
 62
1
 10
-1.6474097E+02
 20
2.267664E+02
 40
2.500293
  1
XX
100
AcDbText
  0
TEXT
  5
a8e
100
AcDbEntity
  8
199
100
AcDbText
  6
CONTINUOUS
 62
1
 10
-1.7673951E+02
 20
2.267664E+02
 40
2.500293
  1
19
100
AcDbText
  0
POLYLINE
  5
a8f
100
AcDbEntity
  8
199
100
AcDb2dPolyline
  6
CONTINUOUS
 62
3
 66
1
 40
2.0E-01
 41
2.0E-01
 70
0
  0
VERTEX
  5
a90
100
AcDbEntity
  8
199
100
AcDbVertex
100
AcDb2dVertex
 42
0.0
 10
-1.8000007E+02
 20
2.3199321E+02
 70
0
  0
VERTEX
  5
a91
100
AcDbEntity
  8
199
100
AcDbVertex
100
AcDb2dVertex
 42
0.0
 10
0.0
 20
2.3199321E+02
 70
0
  0
SEQEND
  5
a92
100
AcDbEntity
  0
POLYLINE
  5
a93
100
AcDbEntity
  8
199
100
AcDb2dPolyline
  6
CONTINUOUS
 62
3
 66
1
 40
2.0E-01
 41
2.0E-01
 70
0
  0
VERTEX
  5
a94
100
AcDbEntity
  8
199
100
AcDbVertex
100
AcDb2dVertex
 42
0.0
 10
-3.4999897E+01
 20
2.2799342E+02
 70
0
  0
VERTEX
  5
a95
100
AcDbEntity
  8
199
100
AcDbVertex
100
AcDb2dVertex
 42
0.0
 10
-3.4999897E+01
 20
2.3199321E+02
 70
0
  0
SEQEND
  5
a96
100
AcDbEntity
  0
POLYLINE
  5
a97
100
AcDbEntity
  8
199
100
AcDb2dPolyline
  6
CONTINUOUS
 62
3
 66
1
 40
2.0E-01
 41
2.0E-01
 70
0
  0
VERTEX
  5
a98
100
AcDbEntity
  8
199
100
AcDbVertex
100
AcDb2dVertex
 42
0.0
 10
-1.0099989E+02
 20
2.2399362E+02
 70
0
  0
VERTEX
  5
a99
100
AcDbEntity
  8
199
100
AcDbVertex
100
AcDb2dVertex
 42
0.0
 10
-1.0099989E+02
 20
2.3199321E+02
 70
0
  0
SEQEND
  5
a9a
100
AcDbEntity
  0
POLYLINE
  5
a9b
100
AcDbEntity
  8
199
100
AcDb2dPolyline
  6
CONTINUOUS
 62
3
 66
1
 40
2.0E-01
 41
2.0E-01
 70
0
  0
VERTEX
  5
a9c
100
AcDbEntity
  8
199
100
AcDbVertex
100
AcDb2dVertex
 42
0.0
 10
-6.7999896E+01
 20
2.2399362E+02
 70
0
  0
VERTEX
  5
a9d
100
AcDbEntity
  8
199
100
AcDbVertex
100
AcDb2dVertex
 42
0.0
 10
-6.7999896E+01
 20
2.3199321E+02
 70
0
  0
SEQEND
  5
a9e
100
AcDbEntity
  0
POLYLINE
  5
a9f
100
AcDbEntity
  8
199
100
AcDb2dPolyline
  6
CONTINUOUS
 62
3
 66
1
 40
2.0E-01
 41
2.0E-01
 70
0
  0
VERTEX
  5
aa0
100
AcDbEntity
  8
199
100
AcDbVertex
100
AcDb2dVertex
 42
0.0
 10
-3.4999897E+01
 20
2.2399362E+02
 70
0
  0
VERTEX
  5
aa1
100
AcDbEntity
  8
199
100
AcDbVertex
100
AcDb2dVertex
 42
0.0
 10
-3.4999897E+01
 20
2.2799342E+02
 70
0
  0
SEQEND
  5
aa2
100
AcDbEntity
  0
POLYLINE
  5
aa3
100
AcDbEntity
  8
199
100
AcDb2dPolyline
  6
CONTINUOUS
 62
3
 66
1
 40
2.0E-01
 41
2.0E-01
 70
0
  0
VERTEX
  5
aa4
100
AcDbEntity
  8
199
100
AcDbVertex
100
AcDb2dVertex
 42
0.0
 10
-1.6799984E+02
 20
2.2399362E+02
 70
0
  0
VERTEX
  5
aa5
100
AcDbEntity
  8
199
100
AcDbVertex
100
AcDb2dVertex
 42
0.0
 10
-1.6799984E+02
 20
2.3199321E+02
 70
0
  0
SEQEND
  5
aa6
100
AcDbEntity
  0
POLYLINE
  5
aa7
100
AcDbEntity
  8
199
100
AcDb2dPolyline
  6
CONTINUOUS
 62
3
 66
1
 40
2.0E-01
 41
2.0E-01
 70
0
  0
VERTEX
  5
aa8
100
AcDbEntity
  8
199
100
AcDbVertex
100
AcDb2dVertex
 42
0.0
 10
-1.5600045E+02
 20
2.2399362E+02
 70
0
  0
VERTEX
  5
aa9
100
AcDbEntity
  8
199
100
AcDbVertex
100
AcDb2dVertex
 42
0.0
 10
-1.5600045E+02
 20
2.3199321E+02
 70
0
  0
SEQEND
  5
aaa
100
AcDbEntity
  0
TEXT
  5
aab
100
AcDbEntity
  8
199
100
AcDbText
  6
CONTINUOUS
 62
1
 10
-9.7741861E+01
 20
2.3476599E+02
 40
2.500293
  1
XX
100
AcDbText
  0
TEXT
  5
aac
100
AcDbEntity
  8
199
100
AcDbText
  6
CONTINUOUS
 62
1
 10
-6.4736816E+01
 20
2.3476599E+02
 40
2.500293
  1
XX
100
AcDbText
  0
TEXT
  5
aad
100
AcDbEntity
  8
199
100
AcDbText
  6
CONTINUOUS
 62
1
 10
-3.1732612E+01
 20
2.3476599E+02
 40
2.500293
  1
XX
100
AcDbText
  0
TEXT
  5
aae
100
AcDbEntity
  8
199
100
AcDbText
  6
CONTINUOUS
 62
1
 10
-1.5274326E+02
 20
2.3476599E+02
 40
2.500293
  1
XX
100
AcDbText
  0
TEXT
  5
aaf
100
AcDbEntity
  8
199
100
AcDbText
  6
CONTINUOUS
 62
1
 10
-1.6474097E+02
 20
2.3476599E+02
 40
2.500293
  1
XX
100
AcDbText
  0
TEXT
  5
ab0
100
AcDbEntity
  8
199
100
AcDbText
  6
CONTINUOUS
 62
1
 10
-1.7673951E+02
 20
2.3476599E+02
 40
2.500293
  1
20
100
AcDbText
  0
POLYLINE
  5
ab1
100
AcDbEntity
  8
199
100
AcDb2dPolyline
  6
CONTINUOUS
 62
3
 66
1
 40
2.0E-01
 41
2.0E-01
 70
0
  0
VERTEX
  5
ab2
100
AcDbEntity
  8
199
100
AcDbVertex
100
AcDb2dVertex
 42
0.0
 10
-1.8000007E+02
 20
2.3999281E+02
 70
0
  0
VERTEX
  5
ab3
100
AcDbEntity
  8
199
100
AcDbVertex
100
AcDb2dVertex
 42
0.0
 10
0.0
 20
2.3999281E+02
 70
0
  0
SEQEND
  5
ab4
100
AcDbEntity
  0
POLYLINE
  5
ab5
100
AcDbEntity
  8
199
100
AcDb2dPolyline
  6
CONTINUOUS
 62
3
 66
1
 40
2.0E-01
 41
2.0E-01
 70
0
  0
VERTEX
  5
ab6
100
AcDbEntity
  8
199
100
AcDbVertex
100
AcDb2dVertex
 42
0.0
 10
-3.4999897E+01
 20
2.3599301E+02
 70
0
  0
VERTEX
  5
ab7
100
AcDbEntity
  8
199
100
AcDbVertex
100
AcDb2dVertex
 42
0.0
 10
-3.4999897E+01
 20
2.3999281E+02
 70
0
  0
SEQEND
  5
ab8
100
AcDbEntity
  0
POLYLINE
  5
ab9
100
AcDbEntity
  8
199
100
AcDb2dPolyline
  6
CONTINUOUS
 62
3
 66
1
 40
2.0E-01
 41
2.0E-01
 70
0
  0
VERTEX
  5
aba
100
AcDbEntity
  8
199
100
AcDbVertex
100
AcDb2dVertex
 42
0.0
 10
-1.0099989E+02
 20
2.3199321E+02
 70
0
  0
VERTEX
  5
abb
100
AcDbEntity
  8
199
100
AcDbVertex
100
AcDb2dVertex
 42
0.0
 10
-1.0099989E+02
 20
2.3999281E+02
 70
0
  0
SEQEND
  5
abc
100
AcDbEntity
  0
POLYLINE
  5
abd
100
AcDbEntity
  8
199
100
AcDb2dPolyline
  6
CONTINUOUS
 62
3
 66
1
 40
2.0E-01
 41
2.0E-01
 70
0
  0
VERTEX
  5
abe
100
AcDbEntity
  8
199
100
AcDbVertex
100
AcDb2dVertex
 42
0.0
 10
-6.7999896E+01
 20
2.3199321E+02
 70
0
  0
VERTEX
  5
abf
100
AcDbEntity
  8
199
100
AcDbVertex
100
AcDb2dVertex
 42
0.0
 10
-6.7999896E+01
 20
2.3999281E+02
 70
0
  0
SEQEND
  5
ac0
100
AcDbEntity
  0
POLYLINE
  5
ac1
100
AcDbEntity
  8
199
100
AcDb2dPolyline
  6
CONTINUOUS
 62
3
 66
1
 40
2.0E-01
 41
2.0E-01
 70
0
  0
VERTEX
  5
ac2
100
AcDbEntity
  8
199
100
AcDbVertex
100
AcDb2dVertex
 42
0.0
 10
-3.4999897E+01
 20
2.3199321E+02
 70
0
  0
VERTEX
  5
ac3
100
AcDbEntity
  8
199
100
AcDbVertex
100
AcDb2dVertex
 42
0.0
 10
-3.4999897E+01
 20
2.3599301E+02
 70
0
  0
SEQEND
  5
ac4
100
AcDbEntity
  0
POLYLINE
  5
ac5
100
AcDbEntity
  8
199
100
AcDb2dPolyline
  6
CONTINUOUS
 62
3
 66
1
 40
2.0E-01
 41
2.0E-01
 70
0
  0
VERTEX
  5
ac6
100
AcDbEntity
  8
199
100
AcDbVertex
100
AcDb2dVertex
 42
0.0
 10
-1.6799984E+02
 20
2.3199321E+02
 70
0
  0
VERTEX
  5
ac7
100
AcDbEntity
  8
199
100
AcDbVertex
100
AcDb2dVertex
 42
0.0
 10
-1.6799984E+02
 20
2.3999281E+02
 70
0
  0
SEQEND
  5
ac8
100
AcDbEntity
  0
POLYLINE
  5
ac9
100
AcDbEntity
  8
199
100
AcDb2dPolyline
  6
CONTINUOUS
 62
3
 66
1
 40
2.0E-01
 41
2.0E-01
 70
0
  0
VERTEX
  5
aca
100
AcDbEntity
  8
199
100
AcDbVertex
100
AcDb2dVertex
 42
0.0
 10
-1.5600045E+02
 20
2.3199321E+02
 70
0
  0
VERTEX
  5
acb
100
AcDbEntity
  8
199
100
AcDbVertex
100
AcDb2dVertex
 42
0.0
 10
-1.5600045E+02
 20
2.3999281E+02
 70
0
  0
SEQEND
  5
acc
100
AcDbEntity
  0
POLYLINE
  5
acd
100
AcDbEntity
  8
199
100
AcDb2dPolyline
  6
CONTINUOUS
 62
5
 66
1
 40
4.0E-01
 41
4.0E-01
 70
0
  0
VERTEX
  5
ace
100
AcDbEntity
  8
199
100
AcDbVertex
100
AcDb2dVertex
 42
0.0
 10
-1.8000007E+02
 20
9.600015E+01
 70
0
  0
VERTEX
  5
acf
100
AcDbEntity
  8
199
100
AcDbVertex
100
AcDb2dVertex
 42
0.0
 10
-1.8000007E+02
 20
8.8000558E+01
 70
0
  0
SEQEND
  5
ad0
100
AcDbEntity
  0
POLYLINE
  5
ad1
100
AcDbEntity
  8
199
100
AcDb2dPolyline
  6
CONTINUOUS
 62
5
 66
1
 40
4.0E-01
 41
4.0E-01
 70
0
  0
VERTEX
  5
ad2
100
AcDbEntity
  8
199
100
AcDbVertex
100
AcDb2dVertex
 42
0.0
 10
-1.8000007E+02
 20
1.0399974E+02
 70
0
  0
VERTEX
  5
ad3
100
AcDbEntity
  8
199
100
AcDbVertex
100
AcDb2dVertex
 42
0.0
 10
-1.8000007E+02
 20
9.600015E+01
 70
0
  0
SEQEND
  5
ad4
100
AcDbEntity
  0
POLYLINE
  5
ad5
100
AcDbEntity
  8
199
100
AcDb2dPolyline
  6
CONTINUOUS
 62
5
 66
1
 40
4.0E-01
 41
4.0E-01
 70
0
  0
VERTEX
  5
ad6
100
AcDbEntity
  8
199
100
AcDbVertex
100
AcDb2dVertex
 42
0.0
 10
-1.8000007E+02
 20
1.1199933E+02
 70
0
  0
VERTEX
  5
ad7
100
AcDbEntity
  8
199
100
AcDbVertex
100
AcDb2dVertex
 42
0.0
 10
-1.8000007E+02
 20
1.0399974E+02
 70
0
  0
SEQEND
  5
ad8
100
AcDbEntity
  0
POLYLINE
  5
ad9
100
AcDbEntity
  8
199
100
AcDb2dPolyline
  6
CONTINUOUS
 62
5
 66
1
 40
4.0E-01
 41
4.0E-01
 70
0
  0
VERTEX
  5
ada
100
AcDbEntity
  8
199
100
AcDbVertex
100
AcDb2dVertex
 42
0.0
 10
-1.8000007E+02
 20
1.1999893E+02
 70
0
  0
VERTEX
  5
adb
100
AcDbEntity
  8
199
100
AcDbVertex
100
AcDb2dVertex
 42
0.0
 10
-1.8000007E+02
 20
1.1199933E+02
 70
0
  0
SEQEND
  5
adc
100
AcDbEntity
  0
POLYLINE
  5
add
100
AcDbEntity
  8
199
100
AcDb2dPolyline
  6
CONTINUOUS
 62
5
 66
1
 40
4.0E-01
 41
4.0E-01
 70
0
  0
VERTEX
  5
ade
100
AcDbEntity
  8
199
100
AcDbVertex
100
AcDb2dVertex
 42
0.0
 10
-1.8000007E+02
 20
1.2799852E+02
 70
0
  0
VERTEX
  5
adf
100
AcDbEntity
  8
199
100
AcDbVertex
100
AcDb2dVertex
 42
0.0
 10
-1.8000007E+02
 20
1.1999893E+02
 70
0
  0
SEQEND
  5
ae0
100
AcDbEntity
  0
POLYLINE
  5
ae1
100
AcDbEntity
  8
199
100
AcDb2dPolyline
  6
CONTINUOUS
 62
5
 66
1
 40
4.0E-01
 41
4.0E-01
 70
0
  0
VERTEX
  5
ae2
100
AcDbEntity
  8
199
100
AcDbVertex
100
AcDb2dVertex
 42
0.0
 10
-1.8000007E+02
 20
1.3599811E+02
 70
0
  0
VERTEX
  5
ae3
100
AcDbEntity
  8
199
100
AcDbVertex
100
AcDb2dVertex
 42
0.0
 10
-1.8000007E+02
 20
1.2799852E+02
 70
0
  0
SEQEND
  5
ae4
100
AcDbEntity
  0
POLYLINE
  5
ae5
100
AcDbEntity
  8
199
100
AcDb2dPolyline
  6
CONTINUOUS
 62
5
 66
1
 40
4.0E-01
 41
4.0E-01
 70
0
  0
VERTEX
  5
ae6
100
AcDbEntity
  8
199
100
AcDbVertex
100
AcDb2dVertex
 42
0.0
 10
-1.8000007E+02
 20
1.439977E+02
 70
0
  0
VERTEX
  5
ae7
100
AcDbEntity
  8
199
100
AcDbVertex
100
AcDb2dVertex
 42
0.0
 10
-1.8000007E+02
 20
1.3599811E+02
 70
0
  0
SEQEND
  5
ae8
100
AcDbEntity
  0
POLYLINE
  5
ae9
100
AcDbEntity
  8
199
100
AcDb2dPolyline
  6
CONTINUOUS
 62
5
 66
1
 40
4.0E-01
 41
4.0E-01
 70
0
  0
VERTEX
  5
aea
100
AcDbEntity
  8
199
100
AcDbVertex
100
AcDb2dVertex
 42
0.0
 10
-1.8000007E+02
 20
1.5199729E+02
 70
0
  0
VERTEX
  5
aeb
100
AcDbEntity
  8
199
100
AcDbVertex
100
AcDb2dVertex
 42
0.0
 10
-1.8000007E+02
 20
1.439977E+02
 70
0
  0
SEQEND
  5
aec
100
AcDbEntity
  0
POLYLINE
  5
aed
100
AcDbEntity
  8
199
100
AcDb2dPolyline
  6
CONTINUOUS
 62
5
 66
1
 40
4.0E-01
 41
4.0E-01
 70
0
  0
VERTEX
  5
aee
100
AcDbEntity
  8
199
100
AcDbVertex
100
AcDb2dVertex
 42
0.0
 10
-1.8000007E+02
 20
1.5999689E+02
 70
0
  0
VERTEX
  5
aef
100
AcDbEntity
  8
199
100
AcDbVertex
100
AcDb2dVertex
 42
0.0
 10
-1.8000007E+02
 20
1.5199729E+02
 70
0
  0
SEQEND
  5
af0
100
AcDbEntity
  0
POLYLINE
  5
af1
100
AcDbEntity
  8
199
100
AcDb2dPolyline
  6
CONTINUOUS
 62
5
 66
1
 40
4.0E-01
 41
4.0E-01
 70
0
  0
VERTEX
  5
af2
100
AcDbEntity
  8
199
100
AcDbVertex
100
AcDb2dVertex
 42
0.0
 10
-1.8000007E+02
 20
1.6799648E+02
 70
0
  0
VERTEX
  5
af3
100
AcDbEntity
  8
199
100
AcDbVertex
100
AcDb2dVertex
 42
0.0
 10
-1.8000007E+02
 20
1.5999689E+02
 70
0
  0
SEQEND
  5
af4
100
AcDbEntity
  0
POLYLINE
  5
af5
100
AcDbEntity
  8
199
100
AcDb2dPolyline
  6
CONTINUOUS
 62
5
 66
1
 40
4.0E-01
 41
4.0E-01
 70
0
  0
VERTEX
  5
af6
100
AcDbEntity
  8
199
100
AcDbVertex
100
AcDb2dVertex
 42
0.0
 10
-1.8000007E+02
 20
1.7599607E+02
 70
0
  0
VERTEX
  5
af7
100
AcDbEntity
  8
199
100
AcDbVertex
100
AcDb2dVertex
 42
0.0
 10
-1.8000007E+02
 20
1.6799648E+02
 70
0
  0
SEQEND
  5
af8
100
AcDbEntity
  0
POLYLINE
  5
af9
100
AcDbEntity
  8
199
100
AcDb2dPolyline
  6
CONTINUOUS
 62
5
 66
1
 40
4.0E-01
 41
4.0E-01
 70
0
  0
VERTEX
  5
afa
100
AcDbEntity
  8
199
100
AcDbVertex
100
AcDb2dVertex
 42
0.0
 10
-1.8000007E+02
 20
1.8399566E+02
 70
0
  0
VERTEX
  5
afb
100
AcDbEntity
  8
199
100
AcDbVertex
100
AcDb2dVertex
 42
0.0
 10
-1.8000007E+02
 20
1.7599607E+02
 70
0
  0
SEQEND
  5
afc
100
AcDbEntity
  0
POLYLINE
  5
afd
100
AcDbEntity
  8
199
100
AcDb2dPolyline
  6
CONTINUOUS
 62
5
 66
1
 40
4.0E-01
 41
4.0E-01
 70
0
  0
VERTEX
  5
afe
100
AcDbEntity
  8
199
100
AcDbVertex
100
AcDb2dVertex
 42
0.0
 10
-1.8000007E+02
 20
1.9199525E+02
 70
0
  0
VERTEX
  5
aff
100
AcDbEntity
  8
199
100
AcDbVertex
100
AcDb2dVertex
 42
0.0
 10
-1.8000007E+02
 20
1.8399566E+02
 70
0
  0
SEQEND
  5
b00
100
AcDbEntity
  0
POLYLINE
  5
b01
100
AcDbEntity
  8
199
100
AcDb2dPolyline
  6
CONTINUOUS
 62
5
 66
1
 40
4.0E-01
 41
4.0E-01
 70
0
  0
VERTEX
  5
b02
100
AcDbEntity
  8
199
100
AcDbVertex
100
AcDb2dVertex
 42
0.0
 10
-1.8000007E+02
 20
1.9999485E+02
 70
0
  0
VERTEX
  5
b03
100
AcDbEntity
  8
199
100
AcDbVertex
100
AcDb2dVertex
 42
0.0
 10
-1.8000007E+02
 20
1.9199525E+02
 70
0
  0
SEQEND
  5
b04
100
AcDbEntity
  0
POLYLINE
  5
b05
100
AcDbEntity
  8
199
100
AcDb2dPolyline
  6
CONTINUOUS
 62
5
 66
1
 40
4.0E-01
 41
4.0E-01
 70
0
  0
VERTEX
  5
b06
100
AcDbEntity
  8
199
100
AcDbVertex
100
AcDb2dVertex
 42
0.0
 10
-1.8000007E+02
 20
2.0799444E+02
 70
0
  0
VERTEX
  5
b07
100
AcDbEntity
  8
199
100
AcDbVertex
100
AcDb2dVertex
 42
0.0
 10
-1.8000007E+02
 20
1.9999485E+02
 70
0
  0
SEQEND
  5
b08
100
AcDbEntity
  0
POLYLINE
  5
b09
100
AcDbEntity
  8
199
100
AcDb2dPolyline
  6
CONTINUOUS
 62
5
 66
1
 40
4.0E-01
 41
4.0E-01
 70
0
  0
VERTEX
  5
b0a
100
AcDbEntity
  8
199
100
AcDbVertex
100
AcDb2dVertex
 42
0.0
 10
-1.8000007E+02
 20
2.1599403E+02
 70
0
  0
VERTEX
  5
b0b
100
AcDbEntity
  8
199
100
AcDbVertex
100
AcDb2dVertex
 42
0.0
 10
-1.8000007E+02
 20
2.0799444E+02
 70
0
  0
SEQEND
  5
b0c
100
AcDbEntity
  0
POLYLINE
  5
b0d
100
AcDbEntity
  8
199
100
AcDb2dPolyline
  6
CONTINUOUS
 62
5
 66
1
 40
4.0E-01
 41
4.0E-01
 70
0
  0
VERTEX
  5
b0e
100
AcDbEntity
  8
199
100
AcDbVertex
100
AcDb2dVertex
 42
0.0
 10
-1.8000007E+02
 20
2.2399362E+02
 70
0
  0
VERTEX
  5
b0f
100
AcDbEntity
  8
199
100
AcDbVertex
100
AcDb2dVertex
 42
0.0
 10
-1.8000007E+02
 20
2.1599403E+02
 70
0
  0
SEQEND
  5
b10
100
AcDbEntity
  0
POLYLINE
  5
b11
100
AcDbEntity
  8
199
100
AcDb2dPolyline
  6
CONTINUOUS
 62
5
 66
1
 40
4.0E-01
 41
4.0E-01
 70
0
  0
VERTEX
  5
b12
100
AcDbEntity
  8
199
100
AcDbVertex
100
AcDb2dVertex
 42
0.0
 10
-1.8000007E+02
 20
2.3199321E+02
 70
0
  0
VERTEX
  5
b13
100
AcDbEntity
  8
199
100
AcDbVertex
100
AcDb2dVertex
 42
0.0
 10
-1.8000007E+02
 20
2.2399362E+02
 70
0
  0
SEQEND
  5
b14
100
AcDbEntity
  0
POLYLINE
  5
b15
100
AcDbEntity
  8
199
100
AcDb2dPolyline
  6
CONTINUOUS
 62
5
 66
1
 40
4.0E-01
 41
4.0E-01
 70
0
  0
VERTEX
  5
b16
100
AcDbEntity
  8
199
100
AcDbVertex
100
AcDb2dVertex
 42
0.0
 10
-1.8000007E+02
 20
2.3999281E+02
 70
0
  0
VERTEX
  5
b17
100
AcDbEntity
  8
199
100
AcDbVertex
100
AcDb2dVertex
 42
0.0
 10
-1.8000007E+02
 20
2.3199321E+02
 70
0
  0
SEQEND
  5
b18
100
AcDbEntity
  0
POLYLINE
  5
b19
100
AcDbEntity
  8
199
100
AcDb2dPolyline
  6
CONTINUOUS
 62
230
 66
1
 40
2.0E-01
 41
2.0E-01
 70
0
  0
VERTEX
  5
b1a
100
AcDbEntity
  8
199
100
AcDbVertex
100
AcDb2dVertex
 42
0.0
 10
-6.7999896E+01
 20
2.9824095E+01
 70
0
  0
VERTEX
  5
b1b
100
AcDbEntity
  8
199
100
AcDbVertex
100
AcDb2dVertex
 42
0.0
 10
-1.179999E+02
 20
2.9824095E+01
 70
0
  0
SEQEND
  5
b1c
100
AcDbEntity
  0
TEXT
  5
b1d
100
AcDbEntity
  8
199
100
AcDbText
  6
CONTINUOUS
 62
230
 10
-1.1504261E+02
 20
3.0787846E+01
 40
2.5
  1
CERN LABEL
100
AcDbText
  0
POLYLINE
  5
b1e
100
AcDbEntity
  8
199
100
AcDb2dPolyline
  6
CONTINUOUS
 62
3
 66
1
 40
3.0E-01
 41
3.0E-01
 70
0
  0
VERTEX
  5
b1f
100
AcDbEntity
  8
199
100
AcDbVertex
100
AcDb2dVertex
 42
0.0
 10
-6.7999896E+01
 20
2.6001197E+01
 70
0
  0
VERTEX
  5
b20
100
AcDbEntity
  8
199
100
AcDbVertex
100
AcDb2dVertex
 42
0.0
 10
-5.299982E+01
 20
2.6001197E+01
 70
0
  0
SEQEND
  5
b21
100
AcDbEntity
  0
LINE
  5
b22
100
AcDbEntity
  8
199
100
AcDbLine
  6
CONTINUOUS
 62
230
 10
-1.179999E+02
 20
4.8240953
 11
-1.179999E+02
 21
3.5000331E+01
  0
LINE
  5
b23
100
AcDbEntity
  8
199
100
AcDbLine
  6
CONTINUOUS
 62
3
 10
0.0
 20
4.8240953
 11
-6.7999896E+01
 21
4.8240953
  0
POLYLINE
  5
b24
100
AcDbEntity
  8
199
100
AcDb2dPolyline
  6
CONTINUOUS
 62
3
 66
1
 40
2.0E-01
 41
2.0E-01
 70
0
  0
VERTEX
  5
b25
100
AcDbEntity
  8
199
100
AcDbVertex
100
AcDb2dVertex
 42
0.0
 10
-6.2000202E+01
 20
4.8000916E+01
 70
0
  0
VERTEX
  5
b26
100
AcDbEntity
  8
199
100
AcDbVertex
100
AcDb2dVertex
 42
0.0
 10
0.0
 20
4.8000916E+01
 70
0
  0
SEQEND
  5
b27
100
AcDbEntity
  0
TEXT
  5
b28
100
AcDbEntity
  8
199
100
AcDbText
  6
CONTINUOUS
 62
1
 10
-6.0251763E+01
 20
4.9750196E+01
 40
2.500293
  1
C
100
AcDbText
  0
LINE
  5
b29
100
AcDbEntity
  8
199
100
AcDbLine
  6
CONTINUOUS
 62
230
 10
-1.179999E+02
 20
3.5000331E+01
 11
-6.7999896E+01
 21
3.5000331E+01
  0
POLYLINE
  5
b2a
100
AcDbEntity
  8
199
100
AcDb2dPolyline
  6
CONTINUOUS
 62
3
 66
1
 40
2.0E-01
 41
2.0E-01
 70
0
  0
VERTEX
  5
b2b
100
AcDbEntity
  8
199
100
AcDbVertex
100
AcDb2dVertex
 42
0.0
 10
-6.7999896E+01
 20
3.4258246E+01
 70
0
  0
VERTEX
  5
b2c
100
AcDbEntity
  8
199
100
AcDbVertex
100
AcDb2dVertex
 42
0.0
 10
-6.7999896E+01
 20
4.6999719E+01
 70
0
  0
SEQEND
  5
b2d
100
AcDbEntity
  0
LINE
  5
b2e
100
AcDbEntity
  8
199
100
AcDbLine
  6
CONTINUOUS
 62
230
 10
-6.7999896E+01
 20
4.8240953
 11
-1.179999E+02
 21
4.8240953
  0
LINE
  5
b2f
100
AcDbEntity
  8
199
100
AcDbLine
  6
CONTINUOUS
 62
3
 10
-1.179999E+02
 20
4.8240953
 11
-1.8000007E+02
 21
4.8240953
  0
HATCH
  5
b30
100
AcDbEntity
  8
199
 62
2
100
AcDbHatch
 10
0.0
 20
0.0
 30
0.0
210
0.0
220
0.0
230
1.0
  2
SOLID
 70
1
 71
0
 91
2
 92
1
 93
10
 72
1
 10
-1.6784746E+02
 20
2.0863598E+01
 11
-1.6784746E+02
 21
2.6308232E+01
 72
1
 10
-1.6784746E+02
 20
2.6308232E+01
 11
-1.6434721E+02
 21
2.0863598E+01
 72
1
 10
-1.6434721E+02
 20
2.0863598E+01
 11
-1.6334727E+02
 21
2.0863598E+01
 72
1
 10
-1.6334727E+02
 20
2.0863598E+01
 11
-1.6334727E+02
 21
2.7864082E+01
 72
1
 10
-1.6334727E+02
 20
2.7864082E+01
 11
-1.6434721E+02
 21
2.7864082E+01
 72
1
 10
-1.6434721E+02
 20
2.7864082E+01
 11
-1.6434721E+02
 21
2.2712957E+01
 72
1
 10
-1.6434721E+02
 20
2.2712957E+01
 11
-1.6765823E+02
 21
2.7864082E+01
 72
1
 10
-1.6765823E+02
 20
2.7864082E+01
 11
-1.6884741E+02
 21
2.7864082E+01
 72
1
 10
-1.6884741E+02
 20
2.7864082E+01
 11
-1.6884741E+02
 21
2.0863598E+01
 72
1
 10
-1.6884741E+02
 20
2.0863598E+01
 11
-1.6784746E+02
 21
2.0863598E+01
 97
0
 92
1
 93
4
 72
1
 10
-1.5984702E+02
 20
2.0863598E+01
 11
-1.5984702E+02
 21
2.7864082E+01
 72
1
 10
-1.5984702E+02
 20
2.7864082E+01
 11
-1.5884707E+02
 21
2.7864082E+01
 72
1
 10
-1.5884707E+02
 20
2.7864082E+01
 11
-1.5884707E+02
 21
2.0863598E+01
 72
1
 10
-1.5884707E+02
 20
2.0863598E+01
 11
-1.5984702E+02
 21
2.0863598E+01
 97
0
 75
0
 76
1
 98
0
  0
HATCH
  5
b31
100
AcDbEntity
  8
199
 62
2
100
AcDbHatch
 10
0.0
 20
0.0
 30
0.0
210
0.0
220
0.0
230
1.0
  2
SOLID
 70
1
 71
0
 91
1
 92
1
 93
10
 72
1
 10
-1.3384667E+02
 20
2.0863598E+01
 11
-1.3284672E+02
 21
2.0863598E+01
 72
1
 10
-1.3284672E+02
 20
2.0863598E+01
 11
-1.3284672E+02
 21
2.3864286E+01
 72
1
 10
-1.3284672E+02
 20
2.3864286E+01
 11
-1.3134722E+02
 21
2.3864286E+01
 72
1
 10
-1.3134722E+02
 20
2.3864286E+01
 11
-1.3134722E+02
 21
2.4864235E+01
 72
1
 10
-1.3134722E+02
 20
2.4864235E+01
 11
-1.3284672E+02
 21
2.4864235E+01
 72
1
 10
-1.3284672E+02
 20
2.4864235E+01
 11
-1.3284672E+02
 21
2.6864133E+01
 72
1
 10
-1.3284672E+02
 20
2.6864133E+01
 11
-1.2934732E+02
 21
2.6864133E+01
 72
1
 10
-1.2934732E+02
 20
2.6864133E+01
 11
-1.2934732E+02
 21
2.7864082E+01
 72
1
 10
-1.2934732E+02
 20
2.7864082E+01
 11
-1.3384667E+02
 21
2.7864082E+01
 72
1
 10
-1.3384667E+02
 20
2.7864082E+01
 11
-1.3384667E+02
 21
2.0863598E+01
 97
0
 75
0
 76
1
 98
0
  0
HATCH
  5
b32
100
AcDbEntity
  8
199
 62
2
100
AcDbHatch
 10
0.0
 20
0.0
 30
0.0
210
0.0
220
0.0
230
1.0
  2
SOLID
 70
1
 71
0
 91
3
 92
1
 93
6
 72
1
 10
-1.4934714E+02
 20
2.8690785E+01
 11
-1.5695146E+02
 21
3.1225559E+01
 72
1
 10
-1.5695146E+02
 20
3.1225559E+01
 11
-1.5695146E+02
 21
1.7502121E+01
 72
1
 10
-1.5695146E+02
 20
1.7502121E+01
 11
-1.4934714E+02
 21
2.0036895E+01
 72
1
 10
-1.4934714E+02
 20
2.0036895E+01
 11
-1.4174282E+02
 21
1.7502121E+01
 72
1
 10
-1.4174282E+02
 20
1.7502121E+01
 11
-1.4174282E+02
 21
3.1225559E+01
 72
1
 10
-1.4174282E+02
 20
3.1225559E+01
 11
-1.4934714E+02
 21
2.8690785E+01
 97
0
 92
1
 93
12
 72
1
 10
-1.4970562E+02
 20
2.8298879E+01
 11
-1.5286688E+02
 21
2.4725048E+01
 72
1
 10
-1.5286688E+02
 20
2.4725048E+01
 11
-1.4970562E+02
 21
2.0428801E+01
 72
1
 10
-1.4970562E+02
 20
2.0428801E+01
 11
-1.5156793E+02
 21
2.0428801E+01
 72
1
 10
-1.5156793E+02
 20
2.0428801E+01
 11
-1.5388351E+02
 21
2.3575738E+01
 72
1
 10
-1.5388351E+02
 20
2.3575738E+01
 11
-1.5443662E+02
 21
2.2950444E+01
 72
1
 10
-1.5443662E+02
 20
2.2950444E+01
 11
-1.5443662E+02
 21
2.0428801E+01
 72
1
 10
-1.5443662E+02
 20
2.0428801E+01
 11
-1.5611778E+02
 21
2.0428801E+01
 72
1
 10
-1.5611778E+02
 20
2.0428801E+01
 11
-1.5611778E+02
 21
2.8298879E+01
 72
1
 10
-1.5611778E+02
 20
2.8298879E+01
 11
-1.5443662E+02
 21
2.8298879E+01
 72
1
 10
-1.5443662E+02
 20
2.8298879E+01
 11
-1.5443662E+02
 21
2.5214425E+01
 72
1
 10
-1.5443662E+02
 20
2.5214425E+01
 11
-1.5170824E+02
 21
2.8298879E+01
 72
1
 10
-1.5170824E+02
 20
2.8298879E+01
 11
-1.4970562E+02
 21
2.8298879E+01
 97
0
 92
1
 93
12
 72
1
 10
-1.4867854E+02
 20
2.8298879E+01
 11
-1.4699738E+02
 21
2.8298879E+01
 72
1
 10
-1.4699738E+02
 20
2.8298879E+01
 11
-1.4699738E+02
 21
2.5203158E+01
 72
1
 10
-1.4699738E+02
 20
2.5203158E+01
 11
-1.4419601E+02
 21
2.5203158E+01
 72
1
 10
-1.4419601E+02
 20
2.5203158E+01
 11
-1.4419601E+02
 21
2.8298879E+01
 72
1
 10
-1.4419601E+02
 20
2.8298879E+01
 11
-1.425157E+02
 21
2.8298879E+01
 72
1
 10
-1.425157E+02
 20
2.8298879E+01
 11
-1.425157E+02
 21
2.0428801E+01
 72
1
 10
-1.425157E+02
 20
2.0428801E+01
 11
-1.4419601E+02
 21
2.0428801E+01
 72
1
 10
-1.4419601E+02
 20
2.0428801E+01
 11
-1.4419601E+02
 21
2.3523681E+01
 72
1
 10
-1.4419601E+02
 20
2.3523681E+01
 11
-1.4699738E+02
 21
2.3523681E+01
 72
1
 10
-1.4699738E+02
 20
2.3523681E+01
 11
-1.4699738E+02
 21
2.0428801E+01
 72
1
 10
-1.4699738E+02
 20
2.0428801E+01
 11
-1.4867854E+02
 21
2.0428801E+01
 72
1
 10
-1.4867854E+02
 20
2.0428801E+01
 11
-1.4867854E+02
 21
2.8298879E+01
 97
0
 75
0
 76
1
 98
0
  0
POINT
  5
b33
100
AcDbEntity
  8
Drafting_Hidden_Entities
100
AcDbPoint
  6
CONTINUOUS
 62
1
 10
0.0
 20
0.0
  0
ENDBLK
  5
b34
100
AcDbEntity
100
AcDbBlockEnd
  0
BLOCK
  5
b35
100
AcDbEntity
100
AcDbBlockBegin
  2
*TX60
  3
*TX
 10
0.0
 20
0.0
 70
65
  0
TEXT
  5
b36
100
AcDbEntity
  8
2
100
AcDbText
  6
CONTINUOUS
 62
2
 10
0.0
 20
0.0
 40
3.5E+01
  1
Plaats M6-insert %%p0.2-0.5 mm 
 41
7.5E-01
100
AcDbText
  0
TEXT
  5
b37
100
AcDbEntity
  8
2
100
AcDbText
  6
CONTINUOUS
 62
2
 10
0.0
 20
-5.25E+01
 40
3.5E+01
  1
onder het plaatoppervlak. (6x)
 41
7.5E-01
100
AcDbText
  0
ENDBLK
  5
b38
100
AcDbEntity
100
AcDbBlockEnd
  0
BLOCK
  5
b39
100
AcDbEntity
100
AcDbBlockBegin
  2
_AH1
 70
0
 10
0.0
 20
0.0
  3
_AH1
  0
LINE
  5
b3a
100
AcDbEntity
  8
0
100
AcDbLine
  6
CONTINUOUS
 62
0
 10
-1.0
 20
1.66667E-01
 11
0.0
 21
0.0
  0
LINE
  5
b3b
100
AcDbEntity
  8
0
100
AcDbLine
  6
CONTINUOUS
 62
0
 10
0.0
 20
0.0
 11
-1.0
 21
-1.66667E-01
  0
LINE
  5
b3c
100
AcDbEntity
  8
0
100
AcDbLine
  6
CONTINUOUS
 62
0
 10
-1.0
 20
1.66667E-01
 11
-1.0
 21
-1.66667E-01
  0
LINE
  5
b3d
100
AcDbEntity
  8
0
100
AcDbLine
  6
CONTINUOUS
 62
0
 10
0.0
 20
0.0
 11
-1.0
 21
0.0
  0
ENDBLK
  5
b3e
100
AcDbEntity
100
AcDbBlockEnd
  0
BLOCK
  5
b3f
100
AcDbEntity
100
AcDbBlockBegin
  2
_AH2
 70
0
 10
0.0
 20
0.0
  3
_AH2
  0
LINE
  5
b40
100
AcDbEntity
  8
0
100
AcDbLine
  6
CONTINUOUS
 62
0
 10
-1.0
 20
1.66667E-01
 11
0.0
 21
0.0
  0
LINE
  5
b41
100
AcDbEntity
  8
0
100
AcDbLine
  6
CONTINUOUS
 62
0
 10
0.0
 20
0.0
 11
-1.0
 21
-1.66667E-01
  0
LINE
  5
b42
100
AcDbEntity
  8
0
100
AcDbLine
  6
CONTINUOUS
 62
0
 10
0.0
 20
0.0
 11
-1.0
 21
0.0
  0
ENDBLK
  5
b43
100
AcDbEntity
100
AcDbBlockEnd
  0
BLOCK
  5
b44
100
AcDbEntity
100
AcDbBlockBegin
  2
*D819
  3
*D
 10
0.0
 20
0.0
 70
65
  0
CIRCLE
  5
b45
100
AcDbEntity
  8
2
100
AcDbCircle
  6
CONTINUOUS
 62
6
 10
1.3932568E+04
 20
5.9480551E+03
 40
6.0E+01
  0
TEXT
  5
b46
100
AcDbEntity
  8
2
100
AcDbText
  6
CONTINUOUS
 62
6
 10
1.3895068E+04
 20
5.9230551E+03
 40
5.0E+01
  1
02
 41
7.5E-01
100
AcDbText
  0
ENDBLK
  5
b47
100
AcDbEntity
100
AcDbBlockEnd
  0
BLOCK
  5
b48
100
AcDbEntity
100
AcDbBlockBegin
  2
*D833
  3
*D
 10
0.0
 20
0.0
 70
65
  0
SOLID
  5
b49
100
AcDbEntity
  8
2
100
AcDbTrace
  6
CONTINUOUS
 62
0
 10
1.3247456E+04
 20
5.4094297E+03
 11
1.3241622E+04
 21
5.3744297E+03
 12
1.3253289E+04
 22
5.3744297E+03
 13
1.3253289E+04
 23
5.3744297E+03
  0
LINE
  5
b4a
100
AcDbEntity
  8
2
100
AcDbLine
  6
CONTINUOUS
 62
6
 10
1.3247456E+04
 20
5.3594297E+03
 11
1.3247456E+04
 21
5.4094297E+03
  0
LINE
  5
b4b
100
AcDbEntity
  8
2
100
AcDbLine
  6
CONTINUOUS
 62
6
 10
1.3247456E+04
 20
5.5494297E+03
 11
1.3247456E+04
 21
5.4094297E+03
  0
TEXT
  5
b4c
100
AcDbEntity
  8
2
100
AcDbText
  6
CONTINUOUS
 62
6
 10
1.3232446E+04
 20
5.4281797E+03
 40
3.5E+01
  1
90
 41
7.5E-01
 50
9.0E+01
100
AcDbText
  0
ENDBLK
  5
b4d
100
AcDbEntity
100
AcDbBlockEnd
  0
BLOCK
  5
b4e
100
AcDbEntity
100
AcDbBlockBegin
  2
*D834
  3
*D
 10
0.0
 20
0.0
 70
65
  0
LINE
  5
b4f
100
AcDbEntity
  8
2
100
AcDbLine
  6
CONTINUOUS
 62
6
 10
1.3554176E+04
 20
5.4994297E+03
 11
1.3237456E+04
 21
5.4994297E+03
  0
LINE
  5
b50
100
AcDbEntity
  8
2
100
AcDbLine
  6
CONTINUOUS
 62
6
 10
1.3554176E+04
 20
5.6394297E+03
 11
1.3237456E+04
 21
5.6394297E+03
  0
LINE
  5
b51
100
AcDbEntity
  8
2
100
AcDbLine
  6
CONTINUOUS
 62
6
 10
1.3247456E+04
 20
5.4994297E+03
 11
1.3247456E+04
 21
5.5694297E+03
  0
LINE
  5
b52
100
AcDbEntity
  8
2
100
AcDbLine
  6
CONTINUOUS
 62
6
 10
1.3247456E+04
 20
5.6394297E+03
 11
1.3247456E+04
 21
5.5694297E+03
  0
INSERT
  5
b53
100
AcDbEntity
100
AcDbBlockReference
  2
_AH13
  8
2
 62
6
 10
1.3247456E+04
 20
5.4994297E+03
 41
3.5E+01
 42
3.5E+01
 43
3.5E+01
 50
2.7E+02
  0
INSERT
  5
b54
100
AcDbEntity
100
AcDbBlockReference
  2
_AH13
  8
2
 62
6
 10
1.3247456E+04
 20
5.6394297E+03
 41
3.5E+01
 42
3.5E+01
 43
3.5E+01
 50
4.5E+02
  0
TEXT
  5
b55
100
AcDbEntity
  8
2
100
AcDbText
  6
CONTINUOUS
 62
6
 10
1.3232446E+04
 20
5.5300547E+03
 40
3.5E+01
  1
140
 41
7.5E-01
 50
9.0E+01
100
AcDbText
  0
ENDBLK
  5
b56
100
AcDbEntity
100
AcDbBlockEnd
  0
BLOCK
  5
b57
100
AcDbEntity
100
AcDbBlockBegin
  2
*D835
  3
*D
 10
0.0
 20
0.0
 70
65
  0
LINE
  5
b58
100
AcDbEntity
  8
2
100
AcDbLine
  6
CONTINUOUS
 62
6
 10
1.3504776E+04
 20
5.4094297E+03
 11
1.3132573E+04
 21
5.4094297E+03
  0
LINE
  5
b59
100
AcDbEntity
  8
2
100
AcDbLine
  6
CONTINUOUS
 62
6
 10
1.3504776E+04
 20
5.6744297E+03
 11
1.3132573E+04
 21
5.6744297E+03
  0
LINE
  5
b5a
100
AcDbEntity
  8
2
100
AcDbLine
  6
CONTINUOUS
 62
6
 10
1.3142573E+04
 20
5.4094297E+03
 11
1.3142573E+04
 21
5.5419297E+03
  0
LINE
  5
b5b
100
AcDbEntity
  8
2
100
AcDbLine
  6
CONTINUOUS
 62
6
 10
1.3142573E+04
 20
5.6744297E+03
 11
1.3142573E+04
 21
5.5419297E+03
  0
INSERT
  5
b5c
100
AcDbEntity
100
AcDbBlockReference
  2
_AH13
  8
2
 62
6
 10
1.3142573E+04
 20
5.4094297E+03
 41
3.5E+01
 42
3.5E+01
 43
3.5E+01
 50
2.7E+02
  0
INSERT
  5
b5d
100
AcDbEntity
100
AcDbBlockReference
  2
_AH13
  8
2
 62
6
 10
1.3142573E+04
 20
5.6744297E+03
 41
3.5E+01
 42
3.5E+01
 43
3.5E+01
 50
4.5E+02
  0
TEXT
  5
b5e
100
AcDbEntity
  8
2
100
AcDbText
  6
CONTINUOUS
 62
6
 10
1.3127563E+04
 20
5.5025547E+03
 40
3.5E+01
  1
265
 41
7.5E-01
 50
9.0E+01
100
AcDbText
  0
ENDBLK
  5
b5f
100
AcDbEntity
100
AcDbBlockEnd
  0
BLOCK
  5
b60
100
AcDbEntity
100
AcDbBlockBegin
  2
*D836
  3
*D
 10
0.0
 20
0.0
 70
65
  0
LINE
  5
b61
100
AcDbEntity
  8
2
100
AcDbLine
  6
CONTINUOUS
 62
6
 10
1.3597037E+04
 20
5.6436073E+03
 11
1.3830712E+04
 21
6.0754078E+03
  0
SOLID
  5
b62
100
AcDbEntity
  8
2
100
AcDbTrace
  6
CONTINUOUS
 62
0
 10
1.3597037E+04
 20
5.6436073E+03
 11
1.3618825E+04
 21
5.6716126E+03
 12
1.3608565E+04
 22
5.6771653E+03
 13
1.3608565E+04
 23
5.6771653E+03
  0
LINE
  5
b63
100
AcDbEntity
  8
2
100
AcDbLine
  6
CONTINUOUS
 62
6
 10
1.3870712E+04
 20
6.0754078E+03
 11
1.3830712E+04
 21
6.0754078E+03
  0
INSERT
  5
b64
100
AcDbEntity
100
AcDbBlockReference
  2
_AH13
  8
2
 62
6
 10
1.3597037E+04
 20
5.6436073E+03
 41
3.5E+01
 42
3.5E+01
 43
3.5E+01
 50
2.4157934E+02
  0
TEXT
  5
b65
100
AcDbEntity
  8
2
100
AcDbText
  6
CONTINUOUS
 62
6
 10
1.3890712E+04
 20
6.0579078E+03
 40
3.5E+01
  1
%%c9.4
 41
7.5E-01
100
AcDbText
  0
INSERT
  5
b66
100
AcDbEntity
100
AcDbBlockReference
  2
_AH13
  8
2
 62
6
 10
1.3597037E+04
 20
5.6436073E+03
 41
3.5E+01
 42
3.5E+01
 43
3.5E+01
 50
2.4157934E+02
  0
TEXT
  5
b67
100
AcDbEntity
  8
2
100
AcDbText
  6
CONTINUOUS
 62
6
 10
1.3995712E+04
 20
6.0797828E+03
 40
1.75E+01
  1
+0.1
 41
7.5E-01
100
AcDbText
  0
INSERT
  5
b68
100
AcDbEntity
100
AcDbBlockReference
  2
_AH13
  8
2
 62
6
 10
1.3597037E+04
 20
5.6436073E+03
 41
3.5E+01
 42
3.5E+01
 43
3.5E+01
 50
2.4157934E+02
  0
TEXT
  5
b69
100
AcDbEntity
  8
2
100
AcDbText
  6
CONTINUOUS
 62
6
 10
1.3995712E+04
 20
6.0535328E+03
 40
1.75E+01
  1
 0
 41
7.5E-01
100
AcDbText
  0
INSERT
  5
b6a
100
AcDbEntity
100
AcDbBlockReference
  2
_AH13
  8
2
 62
6
 10
1.3597037E+04
 20
5.6436073E+03
 41
3.5E+01
 42
3.5E+01
 43
3.5E+01
 50
2.4157934E+02
  0
TEXT
  5
b6b
100
AcDbEntity
  8
2
100
AcDbText
  6
CONTINUOUS
 62
6
 10
1.4056962E+04
 20
6.0579078E+03
 40
3.5E+01
  1
-THRU (6x)
 41
7.5E-01
100
AcDbText
  0
ENDBLK
  5
b6c
100
AcDbEntity
100
AcDbBlockEnd
  0
BLOCK
  5
b6d
100
AcDbEntity
100
AcDbBlockBegin
  2
*D837
  3
*D
 10
0.0
 20
0.0
 70
65
  0
SOLID
  5
b6e
100
AcDbEntity
  8
2
100
AcDbTrace
  6
CONTINUOUS
 62
0
 10
1.3514776E+04
 20
5.1685525E+03
 11
1.3479776E+04
 21
5.1743859E+03
 12
1.3479776E+04
 22
5.1627192E+03
 13
1.3479776E+04
 23
5.1627192E+03
  0
LINE
  5
b6f
100
AcDbEntity
  8
2
100
AcDbLine
  6
CONTINUOUS
 62
6
 10
1.3514776E+04
 20
5.1685525E+03
 11
1.3382421E+04
 21
5.1685525E+03
  0
LINE
  5
b70
100
AcDbEntity
  8
2
100
AcDbLine
  6
CONTINUOUS
 62
6
 10
1.3644776E+04
 20
5.1685525E+03
 11
1.3514776E+04
 21
5.1685525E+03
  0
TEXT
  5
b71
100
AcDbEntity
  8
2
100
AcDbText
  6
CONTINUOUS
 62
6
 10
1.3397421E+04
 20
5.1835625E+03
 40
3.5E+01
  1
80
 41
7.5E-01
100
AcDbText
  0
ENDBLK
  5
b72
100
AcDbEntity
100
AcDbBlockEnd
  0
BLOCK
  5
b73
100
AcDbEntity
100
AcDbBlockBegin
  2
*D838
  3
*D
 10
0.0
 20
0.0
 70
65
  0
LINE
  5
b74
100
AcDbEntity
  8
2
100
AcDbLine
  6
CONTINUOUS
 62
6
 10
1.3594776E+04
 20
5.4894297E+03
 11
1.3594776E+04
 21
5.1585525E+03
  0
LINE
  5
b75
100
AcDbEntity
  8
2
100
AcDbLine
  6
CONTINUOUS
 62
6
 10
1.3594776E+04
 20
5.1685525E+03
 11
1.4524776E+04
 21
5.1685525E+03
  0
LINE
  5
b76
100
AcDbEntity
  8
2
100
AcDbLine
  6
CONTINUOUS
 62
6
 10
1.5454776E+04
 20
5.1685525E+03
 11
1.4524776E+04
 21
5.1685525E+03
  0
INSERT
  5
b77
100
AcDbEntity
100
AcDbBlockReference
  2
_AH13
  8
2
 62
6
 10
1.3594776E+04
 20
5.1685525E+03
 41
3.5E+01
 42
3.5E+01
 43
3.5E+01
 50
1.8E+02
  0
INSERT
  5
b78
100
AcDbEntity
100
AcDbBlockReference
  2
_AH13
  8
2
 62
6
 10
1.5454776E+04
 20
5.1685525E+03
 41
3.5E+01
 42
3.5E+01
 43
3.5E+01
 50
3.6E+02
  0
TEXT
  5
b79
100
AcDbEntity
  8
2
100
AcDbText
  6
CONTINUOUS
 62
6
 10
1.4472276E+04
 20
5.1835625E+03
 40
3.5E+01
  1
1860
 41
7.5E-01
100
AcDbText
  0
ENDBLK
  5
b7a
100
AcDbEntity
100
AcDbBlockEnd
  0
BLOCK
  5
b7b
100
AcDbEntity
100
AcDbBlockBegin
  2
*D839
  3
*D
 10
0.0
 20
0.0
 70
65
  0
LINE
  5
b7c
100
AcDbEntity
  8
2
100
AcDbLine
  6
CONTINUOUS
 62
6
 10
1.5454776E+04
 20
5.4894297E+03
 11
1.5454776E+04
 21
5.1585525E+03
  0
LINE
  5
b7d
100
AcDbEntity
  8
2
100
AcDbLine
  6
CONTINUOUS
 62
6
 10
1.5614776E+04
 20
5.4894297E+03
 11
1.5614776E+04
 21
5.1585525E+03
  0
LINE
  5
b7e
100
AcDbEntity
  8
2
100
AcDbLine
  6
CONTINUOUS
 62
6
 10
1.5454776E+04
 20
5.1685525E+03
 11
1.5534776E+04
 21
5.1685525E+03
  0
LINE
  5
b7f
100
AcDbEntity
  8
2
100
AcDbLine
  6
CONTINUOUS
 62
6
 10
1.5614776E+04
 20
5.1685525E+03
 11
1.5534776E+04
 21
5.1685525E+03
  0
INSERT
  5
b80
100
AcDbEntity
100
AcDbBlockReference
  2
_AH13
  8
2
 62
6
 10
1.5454776E+04
 20
5.1685525E+03
 41
3.5E+01
 42
3.5E+01
 43
3.5E+01
 50
1.8E+02
  0
INSERT
  5
b81
100
AcDbEntity
100
AcDbBlockReference
  2
_AH13
  8
2
 62
6
 10
1.5614776E+04
 20
5.1685525E+03
 41
3.5E+01
 42
3.5E+01
 43
3.5E+01
 50
3.6E+02
  0
TEXT
  5
b82
100
AcDbEntity
  8
2
100
AcDbText
  6
CONTINUOUS
 62
6
 10
1.5464776E+04
 20
5.1835625E+03
 40
3.5E+01
  1
160
 41
7.5E-01
100
AcDbText
  0
INSERT
  5
b83
100
AcDbEntity
100
AcDbBlockReference
  2
_AH13
  8
2
 62
6
 10
1.5454776E+04
 20
5.1685525E+03
 41
3.5E+01
 42
3.5E+01
 43
3.5E+01
 50
1.8E+02
  0
INSERT
  5
b84
100
AcDbEntity
100
AcDbBlockReference
  2
_AH13
  8
2
 62
6
 10
1.5614776E+04
 20
5.1685525E+03
 41
3.5E+01
 42
3.5E+01
 43
3.5E+01
 50
3.6E+02
  0
TEXT
  5
b85
100
AcDbEntity
  8
2
100
AcDbText
  6
CONTINUOUS
 62
6
 10
1.5552276E+04
 20
5.1923125E+03
 40
1.75E+01
  1
%%p0.2
 41
7.5E-01
100
AcDbText
  0
ENDBLK
  5
b86
100
AcDbEntity
100
AcDbBlockEnd
  0
BLOCK
  5
b87
100
AcDbEntity
100
AcDbBlockBegin
  2
*D840
  3
*D
 10
0.0
 20
0.0
 70
65
  0
LINE
  5
b88
100
AcDbEntity
  8
2
100
AcDbLine
  6
CONTINUOUS
 62
6
 10
1.3514776E+04
 20
5.3994297E+03
 11
1.3514776E+04
 21
5.0276175E+03
  0
LINE
  5
b89
100
AcDbEntity
  8
2
100
AcDbLine
  6
CONTINUOUS
 62
6
 10
1.5764776E+04
 20
5.3994297E+03
 11
1.5764776E+04
 21
5.0276175E+03
  0
LINE
  5
b8a
100
AcDbEntity
  8
2
100
AcDbLine
  6
CONTINUOUS
 62
6
 10
1.3514776E+04
 20
5.0376175E+03
 11
1.4639776E+04
 21
5.0376175E+03
  0
LINE
  5
b8b
100
AcDbEntity
  8
2
100
AcDbLine
  6
CONTINUOUS
 62
6
 10
1.5764776E+04
 20
5.0376175E+03
 11
1.4639776E+04
 21
5.0376175E+03
  0
INSERT
  5
b8c
100
AcDbEntity
100
AcDbBlockReference
  2
_AH13
  8
2
 62
6
 10
1.3514776E+04
 20
5.0376175E+03
 41
3.5E+01
 42
3.5E+01
 43
3.5E+01
 50
1.8E+02
  0
INSERT
  5
b8d
100
AcDbEntity
100
AcDbBlockReference
  2
_AH13
  8
2
 62
6
 10
1.5764776E+04
 20
5.0376175E+03
 41
3.5E+01
 42
3.5E+01
 43
3.5E+01
 50
3.6E+02
  0
TEXT
  5
b8e
100
AcDbEntity
  8
2
100
AcDbText
  6
CONTINUOUS
 62
6
 10
1.4587276E+04
 20
5.0526275E+03
 40
3.5E+01
  1
2250
 41
7.5E-01
100
AcDbText
  0
ENDBLK
  5
b8f
100
AcDbEntity
100
AcDbBlockEnd
  0
BLOCK
  5
b90
100
AcDbEntity
100
AcDbBlockBegin
  2
*D841
  3
*D
 10
0.0
 20
0.0
 70
65
  0
LINE
  5
b91
100
AcDbEntity
  8
3
100
AcDbLine
  6
CONTINUOUS
 62
6
 10
2.2764337E+03
 20
5.3994297E+03
 11
2.2764337E+03
 21
5.16074E+03
  0
LINE
  5
b92
100
AcDbEntity
  8
3
100
AcDbLine
  6
CONTINUOUS
 62
6
 10
2.2864337E+03
 20
5.3994297E+03
 11
2.2864337E+03
 21
5.16074E+03
  0
LINE
  5
b93
100
AcDbEntity
  8
3
100
AcDbLine
  6
CONTINUOUS
 62
6
 10
2.2264337E+03
 20
5.17074E+03
 11
2.2864337E+03
 21
5.17074E+03
  0
LINE
  5
b94
100
AcDbEntity
  8
3
100
AcDbLine
  6
CONTINUOUS
 62
6
 10
2.2864337E+03
 20
5.17074E+03
 11
2.42527E+03
 21
5.17074E+03
  0
INSERT
  5
b95
100
AcDbEntity
100
AcDbBlockReference
  2
_AH13
  8
3
 62
6
 10
2.2764337E+03
 20
5.17074E+03
 41
3.5E+01
 42
3.5E+01
 43
3.5E+01
 50
3.6E+02
  0
INSERT
  5
b96
100
AcDbEntity
100
AcDbBlockReference
  2
_AH13
  8
3
 62
6
 10
2.2864337E+03
 20
5.17074E+03
 41
3.5E+01
 42
3.5E+01
 43
3.5E+01
 50
5.4E+02
  0
TEXT
  5
b97
100
AcDbEntity
  8
3
100
AcDbText
  6
CONTINUOUS
 62
6
 10
2.35777E+03
 20
5.18575E+03
 40
3.5E+01
  1
10
 41
7.5E-01
100
AcDbText
  0
ENDBLK
  5
b98
100
AcDbEntity
100
AcDbBlockEnd
  0
ENDSEC
  0
SECTION
  2
ENTITIES
  0
TEXT
  5
b99
100
AcDbEntity
  8
1
100
AcDbText
  6
CONTINUOUS
 62
7
 10
2.3846983E+01
 20
1.4344306E+02
 40
1.0
  1
2-FRONT
 41
3.0
 50
1.0
100
AcDbText
  0
TEXT
  5
b9a
100
AcDbEntity
  8
1
100
AcDbText
  6
CONTINUOUS
 62
7
 10
3.3555183E+02
 20
1.4344306E+02
 40
1.0
  1
3-RIGHT
 41
3.0
 50
1.0
100
AcDbText
  0
CIRCLE
  5
b9b
100
AcDbEntity
  8
2
100
AcDbCircle
  6
CONTINUOUS
 62
30
 10
1.5454776E+04
 20
5.4994297E+03
 40
4.75
  0
CIRCLE
  5
b9c
100
AcDbEntity
  8
2
100
AcDbCircle
  6
CONTINUOUS
 62
30
 10
1.5614776E+04
 20
5.4994297E+03
 40
4.75
  0
CIRCLE
  5
b9d
100
AcDbEntity
  8
2
100
AcDbCircle
  6
CONTINUOUS
 62
30
 10
1.5614776E+04
 20
5.6394297E+03
 40
4.75
  0
CIRCLE
  5
b9e
100
AcDbEntity
  8
2
100
AcDbCircle
  6
CONTINUOUS
 62
30
 10
1.5454776E+04
 20
5.6394297E+03
 40
4.75
  0
LINE
  5
b9f
100
AcDbEntity
  8
2
100
AcDbLine
  6
CONTINUOUS
 62
40
 10
1.5764884E+04
 20
5.4093667E+03
 11
1.3514695E+04
 21
5.4093667E+03
  0
LINE
  5
ba0
100
AcDbEntity
  8
2
100
AcDbLine
  6
CONTINUOUS
 62
40
 10
1.5764884E+04
 20
5.6743475E+03
 11
1.5764884E+04
 21
5.4093667E+03
  0
LINE
  5
ba1
100
AcDbEntity
  8
2
100
AcDbLine
  6
CONTINUOUS
 62
40
 10
1.3514695E+04
 20
5.6743475E+03
 11
1.5764884E+04
 21
5.6743475E+03
  0
LINE
  5
ba2
100
AcDbEntity
  8
2
100
AcDbLine
  6
CONTINUOUS
 62
40
 10
1.3514695E+04
 20
5.4093667E+03
 11
1.3514695E+04
 21
5.6743475E+03
  0
CIRCLE
  5
ba3
100
AcDbEntity
  8
2
100
AcDbCircle
  6
CONTINUOUS
 62
40
 10
1.3594776E+04
 20
5.6394297E+03
 40
4.75
  0
CIRCLE
  5
ba4
100
AcDbEntity
  8
2
100
AcDbCircle
  6
CONTINUOUS
 62
40
 10
1.3594776E+04
 20
5.4994297E+03
 40
4.75
  0
LINE
  5
ba5
100
AcDbEntity
  8
3
100
AcDbLine
  6
CONTINUOUS
 62
40
 10
2.28619E+03
 20
5.4093972E+03
 11
2.276092E+03
 21
5.4093972E+03
  0
LINE
  5
ba6
100
AcDbEntity
  8
3
100
AcDbLine
  6
CONTINUOUS
 62
40
 10
2.28619E+03
 20
5.4093972E+03
 11
2.28619E+03
 21
5.6744696E+03
  0
LINE
  5
ba7
100
AcDbEntity
  8
3
100
AcDbLine
  6
CONTINUOUS
 62
40
 10
2.28619E+03
 20
5.6744696E+03
 11
2.276092E+03
 21
5.6744696E+03
  0
LINE
  5
ba8
100
AcDbEntity
  8
3
100
AcDbLine
  6
CONTINUOUS
 62
40
 10
2.276092E+03
 20
5.6744696E+03
 11
2.276092E+03
 21
5.4093972E+03
  0
LINE
  5
ba9
100
AcDbEntity
  8
3
100
AcDbLine
  6
HIDDEN
 62
30
 10
2.28619E+03
 20
5.4952303E+03
 11
2.276092E+03
 21
5.4952303E+03
  0
LINE
  5
baa
100
AcDbEntity
  8
3
100
AcDbLine
  6
HIDDEN
 62
30
 10
2.28619E+03
 20
5.504181E+03
 11
2.276092E+03
 21
5.504181E+03
  0
LINE
  5
bab
100
AcDbEntity
  8
3
100
AcDbLine
  6
HIDDEN
 62
30
 10
2.28619E+03
 20
5.6434871E+03
 11
2.276092E+03
 21
5.6434871E+03
  0
LINE
  5
bac
100
AcDbEntity
  8
3
100
AcDbLine
  6
HIDDEN
 62
30
 10
2.28619E+03
 20
5.6347662E+03
 11
2.276092E+03
 21
5.6347662E+03
  0
POLYLINE
  5
bad
100
AcDbEntity
  8
1
100
AcDb2dPolyline
  6
CONTINUOUS
 62
5
 66
1
 40
5.0E-01
 41
5.0E-01
 70
0
  0
VERTEX
  5
bae
100
AcDbEntity
  8
1
100
AcDbVertex
100
AcDb2dVertex
 42
0.0
 10
2.4000047E+01
 20
5.175653
 70
0
  0
VERTEX
  5
baf
100
AcDbEntity
  8
1
100
AcDbVertex
100
AcDb2dVertex
 42
0.0
 10
4.1400026E+02
 20
5.175653
 70
0
  0
SEQEND
  5
bb0
100
AcDbEntity
  0
POLYLINE
  5
bb1
100
AcDbEntity
  8
1
100
AcDb2dPolyline
  6
CONTINUOUS
 62
5
 66
1
 40
5.0E-01
 41
5.0E-01
 70
0
  0
VERTEX
  5
bb2
100
AcDbEntity
  8
1
100
AcDbVertex
100
AcDb2dVertex
 42
0.0
 10
4.1400026E+02
 20
5.175653
 70
0
  0
VERTEX
  5
bb3
100
AcDbEntity
  8
1
100
AcDbVertex
100
AcDb2dVertex
 42
0.0
 10
4.1400026E+02
 20
2.921758E+02
 70
0
  0
SEQEND
  5
bb4
100
AcDbEntity
  0
POLYLINE
  5
bb5
100
AcDbEntity
  8
1
100
AcDb2dPolyline
  6
CONTINUOUS
 62
5
 66
1
 40
5.0E-01
 41
5.0E-01
 70
0
  0
VERTEX
  5
bb6
100
AcDbEntity
  8
1
100
AcDbVertex
100
AcDb2dVertex
 42
0.0
 10
4.1400026E+02
 20
2.921758E+02
 70
0
  0
VERTEX
  5
bb7
100
AcDbEntity
  8
1
100
AcDbVertex
100
AcDb2dVertex
 42
0.0
 10
2.4000047E+01
 20
2.921758E+02
 70
0
  0
SEQEND
  5
bb8
100
AcDbEntity
  0
POLYLINE
  5
bb9
100
AcDbEntity
  8
1
100
AcDb2dPolyline
  6
CONTINUOUS
 62
5
 66
1
 40
5.0E-01
 41
5.0E-01
 70
0
  0
VERTEX
  5
bba
100
AcDbEntity
  8
1
100
AcDbVertex
100
AcDb2dVertex
 42
0.0
 10
2.4000047E+01
 20
2.921758E+02
 70
0
  0
VERTEX
  5
bbb
100
AcDbEntity
  8
1
100
AcDbVertex
100
AcDb2dVertex
 42
0.0
 10
2.4000047E+01
 20
5.175653
 70
0
  0
SEQEND
  5
bbc
100
AcDbEntity
  0
POLYLINE
  5
bbd
100
AcDbEntity
  8
1
100
AcDb2dPolyline
  6
CONTINUOUS
 62
1
 66
1
 40
2.0E-01
 41
2.0E-01
 70
0
  0
VERTEX
  5
bbe
100
AcDbEntity
  8
1
100
AcDbVertex
100
AcDb2dVertex
 42
9.9999992E-01
 10
2.1499754E+01
 20
2.0175729E+01
 70
0
  0
VERTEX
  5
bbf
100
AcDbEntity
  8
1
100
AcDbVertex
100
AcDb2dVertex
 42
9.9999992E-01
 10
1.6499168E+01
 20
2.0175729E+01
 70
0
  0
VERTEX
  5
bc0
100
AcDbEntity
  8
1
100
AcDbVertex
100
AcDb2dVertex
 42
0.0
 10
2.1499754E+01
 20
2.0175729E+01
 70
0
  0
SEQEND
  5
bc1
100
AcDbEntity
  0
POLYLINE
  5
bc2
100
AcDbEntity
  8
1
100
AcDb2dPolyline
  6
CONTINUOUS
 62
1
 66
1
 40
2.0E-01
 41
2.0E-01
 70
0
  0
VERTEX
  5
bc3
100
AcDbEntity
  8
1
100
AcDbVertex
100
AcDb2dVertex
 42
0.0
 10
1.6500009E+01
 20
2.0175729E+01
 70
0
  0
VERTEX
  5
bc4
100
AcDbEntity
  8
1
100
AcDbVertex
100
AcDb2dVertex
 42
0.0
 10
2.1499754E+01
 20
2.0175729E+01
 70
0
  0
SEQEND
  5
bc5
100
AcDbEntity
  0
POLYLINE
  5
bc6
100
AcDbEntity
  8
1
100
AcDb2dPolyline
  6
CONTINUOUS
 62
1
 66
1
 40
2.0E-01
 41
2.0E-01
 70
0
  0
VERTEX
  5
bc7
100
AcDbEntity
  8
1
100
AcDbVertex
100
AcDb2dVertex
 42
0.0
 10
1.8999461E+01
 20
1.7676277E+01
 70
0
  0
VERTEX
  5
bc8
100
AcDbEntity
  8
1
100
AcDbVertex
100
AcDb2dVertex
 42
0.0
 10
1.8999461E+01
 20
2.2676022E+01
 70
0
  0
SEQEND
  5
bc9
100
AcDbEntity
  0
TEXT
  5
bca
100
AcDbEntity
  8
1
100
AcDbText
  6
CONTINUOUS
 62
1
 10
2.4892447E+02
 20
6.909597
 40
1.8
  1
This drawing may not be used for commercial purposes without written authorisation.
100
AcDbText
  0
TEXT
  5
bcb
100
AcDbEntity
  8
1
100
AcDbText
  6
CONTINUOUS
 62
1
 10
3.162584E+02
 20
8.7949396E+01
 40
2.500293
  1
AlMgSi 0,5 (Al.50ST)-Halfhard
 41
7.5E-01
100
AcDbText
  0
TEXT
  5
bcc
100
AcDbEntity
  8
1
100
AcDbText
  6
CONTINUOUS
 62
1
 10
2.61257E+02
 20
8.7949396E+01
 40
2.500293
  1
--
100
AcDbText
  0
TEXT
  5
bcd
100
AcDbEntity
  8
1
100
AcDbText
  6
CONTINUOUS
 62
1
 10
2.4925929E+02
 20
8.7949396E+01
 40
2.500293
  1
01
100
AcDbText
  0
TEXT
  5
bce
100
AcDbEntity
  8
1
100
AcDbText
  6
CONTINUOUS
 62
1
 10
2.3726075E+02
 20
8.7949396E+01
 40
2.500293
  1
01
100
AcDbText
  0
TEXT
  5
bcf
100
AcDbEntity
  8
1
100
AcDbText
  6
CONTINUOUS
 62
5
 10
2.6019229E+02
 20
5.9037498E+01
 40
4.999745
  1
 
100
AcDbText
  0
POLYLINE
  5
bd0
100
AcDbEntity
  8
1
100
AcDb2dPolyline
  6
CONTINUOUS
 62
2
 66
1
 40
2.0E-01
 41
2.0E-01
 70
0
  0
VERTEX
  5
bd1
100
AcDbEntity
  8
1
100
AcDbVertex
100
AcDb2dVertex
 42
0.0
 10
2.7225744E+02
 20
3.6401212E+01
 70
0
  0
VERTEX
  5
bd2
100
AcDbEntity
  8
1
100
AcDbVertex
100
AcDb2dVertex
 42
0.0
 10
2.7225744E+02
 20
2.2677774E+01
 70
0
  0
SEQEND
  5
bd3
100
AcDbEntity
  0
POLYLINE
  5
bd4
100
AcDbEntity
  8
1
100
AcDb2dPolyline
  6
CONTINUOUS
 62
2
 66
1
 40
2.0E-01
 41
2.0E-01
 70
0
  0
VERTEX
  5
bd5
100
AcDbEntity
  8
1
100
AcDbVertex
100
AcDb2dVertex
 42
0.0
 10
2.570488E+02
 20
2.2677774E+01
 70
0
  0
VERTEX
  5
bd6
100
AcDbEntity
  8
1
100
AcDbVertex
100
AcDb2dVertex
 42
0.0
 10
2.570488E+02
 20
3.6401212E+01
 70
0
  0
SEQEND
  5
bd7
100
AcDbEntity
  0
POLYLINE
  5
bd8
100
AcDbEntity
  8
1
100
AcDb2dPolyline
  6
CONTINUOUS
 62
2
 66
1
 40
2.0E-01
 41
2.0E-01
 70
0
  0
VERTEX
  5
bd9
100
AcDbEntity
  8
1
100
AcDbVertex
100
AcDb2dVertex
 42
0.0
 10
2.6465312E+02
 20
3.3866438E+01
 70
0
  0
VERTEX
  5
bda
100
AcDbEntity
  8
1
100
AcDbVertex
100
AcDb2dVertex
 42
0.0
 10
2.7225744E+02
 20
3.6401212E+01
 70
0
  0
SEQEND
  5
bdb
100
AcDbEntity
  0
POLYLINE
  5
bdc
100
AcDbEntity
  8
1
100
AcDb2dPolyline
  6
CONTINUOUS
 62
2
 66
1
 40
2.0E-01
 41
2.0E-01
 70
0
  0
VERTEX
  5
bdd
100
AcDbEntity
  8
1
100
AcDbVertex
100
AcDb2dVertex
 42
0.0
 10
2.6700288E+02
 20
3.3474532E+01
 70
0
  0
VERTEX
  5
bde
100
AcDbEntity
  8
1
100
AcDbVertex
100
AcDb2dVertex
 42
0.0
 10
2.6700288E+02
 20
3.0378811E+01
 70
0
  0
SEQEND
  5
bdf
100
AcDbEntity
  0
POLYLINE
  5
be0
100
AcDbEntity
  8
1
100
AcDb2dPolyline
  6
CONTINUOUS
 62
2
 66
1
 40
2.0E-01
 41
2.0E-01
 70
0
  0
VERTEX
  5
be1
100
AcDbEntity
  8
1
100
AcDbVertex
100
AcDb2dVertex
 42
0.0
 10
2.6980425E+02
 20
3.0378811E+01
 70
0
  0
VERTEX
  5
be2
100
AcDbEntity
  8
1
100
AcDbVertex
100
AcDb2dVertex
 42
0.0
 10
2.6980425E+02
 20
3.3474532E+01
 70
0
  0
SEQEND
  5
be3
100
AcDbEntity
  0
POLYLINE
  5
be4
100
AcDbEntity
  8
1
100
AcDb2dPolyline
  6
CONTINUOUS
 62
2
 66
1
 40
2.0E-01
 41
2.0E-01
 70
0
  0
VERTEX
  5
be5
100
AcDbEntity
  8
1
100
AcDbVertex
100
AcDb2dVertex
 42
0.0
 10
2.7148457E+02
 20
3.3474532E+01
 70
0
  0
VERTEX
  5
be6
100
AcDbEntity
  8
1
100
AcDbVertex
100
AcDb2dVertex
 42
0.0
 10
2.7148457E+02
 20
2.5604454E+01
 70
0
  0
SEQEND
  5
be7
100
AcDbEntity
  0
TEXT
  5
be8
100
AcDbEntity
  8
1
100
AcDbText
  6
CONTINUOUS
 62
1
 10
2.506234E+02
 20
4.1927787E+01
 40
2.500293
  1
21-11-'05
100
AcDbText
  0
TEXT
  5
be9
100
AcDbEntity
  8
1
100
AcDbText
  6
CONTINUOUS
 62
1
 10
2.98261E+02
 20
4.792664E+01
 40
2.500293
  1
A.K.
 51
1.5E+01
100
AcDbText
  0
POLYLINE
  5
bea
100
AcDbEntity
  8
1
100
AcDb2dPolyline
  6
CONTINUOUS
 62
5
 66
1
 40
4.0E-01
 41
4.0E-01
 70
0
  0
VERTEX
  5
beb
100
AcDbEntity
  8
1
100
AcDbVertex
100
AcDb2dVertex
 42
0.0
 10
3.4600036E+02
 20
5.2175372E+01
 70
0
  0
VERTEX
  5
bec
100
AcDbEntity
  8
1
100
AcDbVertex
100
AcDb2dVertex
 42
0.0
 10
3.4600036E+02
 20
7.7176186E+01
 70
0
  0
SEQEND
  5
bed
100
AcDbEntity
  0
POLYLINE
  5
bee
100
AcDbEntity
  8
1
100
AcDb2dPolyline
  6
CONTINUOUS
 62
3
 66
1
 40
2.0E-01
 41
2.0E-01
 70
0
  0
VERTEX
  5
bef
100
AcDbEntity
  8
1
100
AcDbVertex
100
AcDb2dVertex
 42
0.0
 10
3.4600036E+02
 20
7.7176186E+01
 70
0
  0
VERTEX
  5
bf0
100
AcDbEntity
  8
1
100
AcDbVertex
100
AcDb2dVertex
 42
0.0
 10
3.4600036E+02
 20
8.5176619E+01
 70
0
  0
SEQEND
  5
bf1
100
AcDbEntity
  0
POLYLINE
  5
bf2
100
AcDbEntity
  8
1
100
AcDb2dPolyline
  6
CONTINUOUS
 62
3
 66
1
 40
3.0E-01
 41
3.0E-01
 70
0
  0
VERTEX
  5
bf3
100
AcDbEntity
  8
1
100
AcDbVertex
100
AcDb2dVertex
 42
0.0
 10
3.4600036E+02
 20
7.7176186E+01
 70
0
  0
VERTEX
  5
bf4
100
AcDbEntity
  8
1
100
AcDbVertex
100
AcDb2dVertex
 42
0.0
 10
4.1400026E+02
 20
7.7176186E+01
 70
0
  0
SEQEND
  5
bf5
100
AcDbEntity
  0
POLYLINE
  5
bf6
100
AcDbEntity
  8
1
100
AcDb2dPolyline
  6
CONTINUOUS
 62
5
 66
1
 40
4.0E-01
 41
4.0E-01
 70
0
  0
VERTEX
  5
bf7
100
AcDbEntity
  8
1
100
AcDbVertex
100
AcDb2dVertex
 42
0.0
 10
3.6100044E+02
 20
1.6176774E+01
 70
0
  0
VERTEX
  5
bf8
100
AcDbEntity
  8
1
100
AcDbVertex
100
AcDb2dVertex
 42
0.0
 10
4.1400026E+02
 20
1.6176774E+01
 70
0
  0
SEQEND
  5
bf9
100
AcDbEntity
  0
POLYLINE
  5
bfa
100
AcDbEntity
  8
1
100
AcDb2dPolyline
  6
CONTINUOUS
 62
5
 66
1
 40
4.0E-01
 41
4.0E-01
 70
0
  0
VERTEX
  5
bfb
100
AcDbEntity
  8
1
100
AcDbVertex
100
AcDb2dVertex
 42
0.0
 10
2.3400019E+02
 20
7.7176186E+01
 70
0
  0
VERTEX
  5
bfc
100
AcDbEntity
  8
1
100
AcDbVertex
100
AcDb2dVertex
 42
0.0
 10
3.4600036E+02
 20
7.7176186E+01
 70
0
  0
SEQEND
  5
bfd
100
AcDbEntity
  0
POLYLINE
  5
bfe
100
AcDbEntity
  8
1
100
AcDb2dPolyline
  6
CONTINUOUS
 62
3
 66
1
 40
3.0E-01
 41
3.0E-01
 70
0
  0
VERTEX
  5
bff
100
AcDbEntity
  8
1
100
AcDbVertex
100
AcDb2dVertex
 42
0.0
 10
2.3400019E+02
 20
4.0175984E+01
 70
0
  0
VERTEX
  5
c00
100
AcDbEntity
  8
1
100
AcDbVertex
100
AcDb2dVertex
 42
0.0
 10
3.4600036E+02
 20
4.0175984E+01
 70
0
  0
SEQEND
  5
c01
100
AcDbEntity
  0
POLYLINE
  5
c02
100
AcDbEntity
  8
1
100
AcDb2dPolyline
  6
CONTINUOUS
 62
3
 66
1
 40
2.0E-01
 41
2.0E-01
 70
0
  0
VERTEX
  5
c03
100
AcDbEntity
  8
1
100
AcDbVertex
100
AcDb2dVertex
 42
0.0
 10
3.239998E+02
 20
4.6175678E+01
 70
0
  0
VERTEX
  5
c04
100
AcDbEntity
  8
1
100
AcDbVertex
100
AcDb2dVertex
 42
0.0
 10
2.3400019E+02
 20
4.6175678E+01
 70
0
  0
SEQEND
  5
c05
100
AcDbEntity
  0
POLYLINE
  5
c06
100
AcDbEntity
  8
1
100
AcDb2dPolyline
  6
CONTINUOUS
 62
5
 66
1
 40
4.0E-01
 41
4.0E-01
 70
0
  0
VERTEX
  5
c07
100
AcDbEntity
  8
1
100
AcDbVertex
100
AcDb2dVertex
 42
0.0
 10
2.3400019E+02
 20
5.2175372E+01
 70
0
  0
VERTEX
  5
c08
100
AcDbEntity
  8
1
100
AcDbVertex
100
AcDb2dVertex
 42
0.0
 10
3.4600036E+02
 20
5.2175372E+01
 70
0
  0
SEQEND
  5
c09
100
AcDbEntity
  0
POLYLINE
  5
c0a
100
AcDbEntity
  8
1
100
AcDb2dPolyline
  6
CONTINUOUS
 62
5
 66
1
 40
4.0E-01
 41
4.0E-01
 70
0
  0
VERTEX
  5
c0b
100
AcDbEntity
  8
1
100
AcDbVertex
100
AcDb2dVertex
 42
0.0
 10
2.3400019E+02
 20
6.7176696E+01
 70
0
  0
VERTEX
  5
c0c
100
AcDbEntity
  8
1
100
AcDbVertex
100
AcDb2dVertex
 42
0.0
 10
3.4600036E+02
 20
6.7176696E+01
 70
0
  0
SEQEND
  5
c0d
100
AcDbEntity
  0
POLYLINE
  5
c0e
100
AcDbEntity
  8
1
100
AcDb2dPolyline
  6
CONTINUOUS
 62
3
 66
1
 40
2.0E-01
 41
2.0E-01
 70
0
  0
VERTEX
  5
c0f
100
AcDbEntity
  8
1
100
AcDbVertex
100
AcDb2dVertex
 42
0.0
 10
2.7900042E+02
 20
5.2175372E+01
 70
0
  0
VERTEX
  5
c10
100
AcDbEntity
  8
1
100
AcDbVertex
100
AcDb2dVertex
 42
0.0
 10
2.7900042E+02
 20
4.0175984E+01
 70
0
  0
SEQEND
  5
c11
100
AcDbEntity
  0
POLYLINE
  5
c12
100
AcDbEntity
  8
1
100
AcDb2dPolyline
  6
CONTINUOUS
 62
3
 66
1
 40
2.0E-01
 41
2.0E-01
 70
0
  0
VERTEX
  5
c13
100
AcDbEntity
  8
1
100
AcDbVertex
100
AcDb2dVertex
 42
0.0
 10
3.239998E+02
 20
4.0175984E+01
 70
0
  0
VERTEX
  5
c14
100
AcDbEntity
  8
1
100
AcDbVertex
100
AcDb2dVertex
 42
0.0
 10
3.239998E+02
 20
5.2175372E+01
 70
0
  0
SEQEND
  5
c15
100
AcDbEntity
  0
TEXT
  5
c16
100
AcDbEntity
  8
1
100
AcDbText
  6
CONTINUOUS
 62
1
 10
2.360085E+02
 20
4.1927787E+01
 40
2.500293
  1
Date:
100
AcDbText
  0
TEXT
  5
c17
100
AcDbEntity
  8
1
100
AcDbText
  6
CONTINUOUS
 62
1
 10
2.360085E+02
 20
4.792664E+01
 40
2.500293
  1
Scale:
100
AcDbText
  0
TEXT
  5
c18
100
AcDbEntity
  8
1
100
AcDbText
  6
CONTINUOUS
 62
1
 10
2.5241725E+02
 20
4.7851791E+01
 40
2.500293
  1
1:10
100
AcDbText
  0
TEXT
  5
c19
100
AcDbEntity
  8
1
100
AcDbText
  6
CONTINUOUS
 62
1
 10
2.8099275E+02
 20
4.792664E+01
 40
2.500293
  1
Drawn:
100
AcDbText
  0
TEXT
  5
c1a
100
AcDbEntity
  8
1
100
AcDbText
  6
CONTINUOUS
 62
1
 10
2.8099275E+02
 20
4.1927787E+01
 40
2.500293
  1
Checked:
100
AcDbText
  0
POLYLINE
  5
c1b
100
AcDbEntity
  8
1
100
AcDb2dPolyline
  6
CONTINUOUS
 62
5
 66
1
 40
4.0E-01
 41
4.0E-01
 70
0
  0
VERTEX
  5
c1c
100
AcDbEntity
  8
1
100
AcDbVertex
100
AcDb2dVertex
 42
0.0
 10
3.6100044E+02
 20
1.6176774E+01
 70
0
  0
VERTEX
  5
c1d
100
AcDbEntity
  8
1
100
AcDbVertex
100
AcDb2dVertex
 42
0.0
 10
3.6100044E+02
 20
3.117685E+01
 70
0
  0
SEQEND
  5
c1e
100
AcDbEntity
  0
TEXT
  5
c1f
100
AcDbEntity
  8
1
100
AcDbText
  6
CONTINUOUS
 62
1
 10
3.263689E+02
 20
4.1123791E+01
 40
1.79974
  1
Dim. in mm
100
AcDbText
  0
POLYLINE
  5
c20
100
AcDbEntity
  8
1
100
AcDb2dPolyline
  6
CONTINUOUS
 62
3
 66
1
 40
2.0E-01
 41
2.0E-01
 70
0
  0
VERTEX
  5
c21
100
AcDbEntity
  8
1
100
AcDbVertex
100
AcDb2dVertex
 42
9.9999992E-01
 10
3.3049821E+02
 20
4.8037652E+01
 70
0
  0
VERTEX
  5
c22
100
AcDbEntity
  8
1
100
AcDbVertex
100
AcDb2dVertex
 42
9.9999992E-01
 10
3.3336939E+02
 20
4.8037652E+01
 70
0
  0
VERTEX
  5
c23
100
AcDbEntity
  8
1
100
AcDbVertex
100
AcDb2dVertex
 42
0.0
 10
3.3049821E+02
 20
4.8037652E+01
 70
0
  0
SEQEND
  5
c24
100
AcDbEntity
  0
POLYLINE
  5
c25
100
AcDbEntity
  8
1
100
AcDb2dPolyline
  6
CONTINUOUS
 62
3
 66
1
 40
2.0E-01
 41
2.0E-01
 70
0
  0
VERTEX
  5
c26
100
AcDbEntity
  8
1
100
AcDbVertex
100
AcDb2dVertex
 42
9.9999992E-01
 10
3.2923251E+02
 20
4.8037651E+01
 70
0
  0
VERTEX
  5
c27
100
AcDbEntity
  8
1
100
AcDbVertex
100
AcDb2dVertex
 42
9.9999992E-01
 10
3.3463509E+02
 20
4.8037653E+01
 70
0
  0
VERTEX
  5
c28
100
AcDbEntity
  8
1
100
AcDbVertex
100
AcDb2dVertex
 42
0.0
 10
3.2923251E+02
 20
4.8037651E+01
 70
0
  0
SEQEND
  5
c29
100
AcDbEntity
  0
POLYLINE
  5
c2a
100
AcDbEntity
  8
1
100
AcDb2dPolyline
  6
CONTINUOUS
 62
3
 66
1
 40
2.0E-01
 41
2.0E-01
 70
0
  0
VERTEX
  5
c2b
100
AcDbEntity
  8
1
100
AcDbVertex
100
AcDb2dVertex
 42
0.0
 10
3.3655425E+02
 20
4.9473239E+01
 70
0
  0
VERTEX
  5
c2c
100
AcDbEntity
  8
1
100
AcDbVertex
100
AcDb2dVertex
 42
0.0
 10
3.4119405E+02
 20
5.0738944E+01
 70
0
  0
SEQEND
  5
c2d
100
AcDbEntity
  0
POLYLINE
  5
c2e
100
AcDbEntity
  8
1
100
AcDb2dPolyline
  6
CONTINUOUS
 62
3
 66
1
 40
2.0E-01
 41
2.0E-01
 70
0
  0
VERTEX
  5
c2f
100
AcDbEntity
  8
1
100
AcDbVertex
100
AcDb2dVertex
 42
0.0
 10
3.3655425E+02
 20
4.6602065E+01
 70
0
  0
VERTEX
  5
c30
100
AcDbEntity
  8
1
100
AcDbVertex
100
AcDb2dVertex
 42
0.0
 10
3.4119405E+02
 20
4.533636E+01
 70
0
  0
SEQEND
  5
c31
100
AcDbEntity
  0
POLYLINE
  5
c32
100
AcDbEntity
  8
1
100
AcDb2dPolyline
  6
CONTINUOUS
 62
3
 66
1
 40
2.0E-01
 41
2.0E-01
 70
0
  0
VERTEX
  5
c33
100
AcDbEntity
  8
1
100
AcDbVertex
100
AcDb2dVertex
 42
0.0
 10
3.4119405E+02
 20
4.533636E+01
 70
0
  0
VERTEX
  5
c34
100
AcDbEntity
  8
1
100
AcDbVertex
100
AcDb2dVertex
 42
0.0
 10
3.4119405E+02
 20
5.0738944E+01
 70
0
  0
SEQEND
  5
c35
100
AcDbEntity
  0
POLYLINE
  5
c36
100
AcDbEntity
  8
1
100
AcDb2dPolyline
  6
CONTINUOUS
 62
3
 66
1
 40
2.0E-01
 41
2.0E-01
 70
0
  0
VERTEX
  5
c37
100
AcDbEntity
  8
1
100
AcDbVertex
100
AcDb2dVertex
 42
0.0
 10
3.3655425E+02
 20
4.9473239E+01
 70
0
  0
VERTEX
  5
c38
100
AcDbEntity
  8
1
100
AcDbVertex
100
AcDb2dVertex
 42
0.0
 10
3.3655425E+02
 20
4.6602065E+01
 70
0
  0
SEQEND
  5
c39
100
AcDbEntity
  0
POLYLINE
  5
c3a
100
AcDbEntity
  8
1
100
AcDb2dPolyline
  6
CENTERLINE
 62
1
 66
1
 40
2.0E-01
 41
2.0E-01
 70
0
  0
VERTEX
  5
c3b
100
AcDbEntity
  8
1
100
AcDbVertex
100
AcDb2dVertex
 42
0.0
 10
3.3218358E+02
 20
4.8037652E+01
 70
0
  0
VERTEX
  5
c3c
100
AcDbEntity
  8
1
100
AcDbVertex
100
AcDb2dVertex
 42
0.0
 10
3.3168402E+02
 20
4.8037652E+01
 70
0
  0
SEQEND
  5
c3d
100
AcDbEntity
  0
POLYLINE
  5
c3e
100
AcDbEntity
  8
1
100
AcDb2dPolyline
  6
CENTERLINE
 62
1
 66
1
 40
2.0E-01
 41
2.0E-01
 70
0
  0
VERTEX
  5
c3f
100
AcDbEntity
  8
1
100
AcDbVertex
100
AcDb2dVertex
 42
0.0
 10
3.319338E+02
 20
4.8287429E+01
 70
0
  0
VERTEX
  5
c40
100
AcDbEntity
  8
1
100
AcDbVertex
100
AcDb2dVertex
 42
0.0
 10
3.319338E+02
 20
4.7787875E+01
 70
0
  0
SEQEND
  5
c41
100
AcDbEntity
  0
POLYLINE
  5
c42
100
AcDbEntity
  8
1
100
AcDb2dPolyline
  6
CENTERLINE
 62
1
 66
1
 40
2.0E-01
 41
2.0E-01
 70
0
  0
VERTEX
  5
c43
100
AcDbEntity
  8
1
100
AcDbVertex
100
AcDb2dVertex
 42
0.0
 10
3.3268397E+02
 20
4.8037652E+01
 70
0
  0
VERTEX
  5
c44
100
AcDbEntity
  8
1
100
AcDbVertex
100
AcDb2dVertex
 42
0.0
 10
3.3505391E+02
 20
4.8037652E+01
 70
0
  0
SEQEND
  5
c45
100
AcDbEntity
  0
POLYLINE
  5
c46
100
AcDbEntity
  8
1
100
AcDb2dPolyline
  6
CENTERLINE
 62
1
 66
1
 40
2.0E-01
 41
2.0E-01
 70
0
  0
VERTEX
  5
c47
100
AcDbEntity
  8
1
100
AcDbVertex
100
AcDb2dVertex
 42
0.0
 10
3.319338E+02
 20
4.8787824E+01
 70
0
  0
VERTEX
  5
c48
100
AcDbEntity
  8
1
100
AcDbVertex
100
AcDb2dVertex
 42
0.0
 10
3.319338E+02
 20
5.1239339E+01
 70
0
  0
SEQEND
  5
c49
100
AcDbEntity
  0
POLYLINE
  5
c4a
100
AcDbEntity
  8
1
100
AcDb2dPolyline
  6
CENTERLINE
 62
1
 66
1
 40
2.0E-01
 41
2.0E-01
 70
0
  0
VERTEX
  5
c4b
100
AcDbEntity
  8
1
100
AcDbVertex
100
AcDb2dVertex
 42
0.0
 10
3.3118363E+02
 20
4.8037652E+01
 70
0
  0
VERTEX
  5
c4c
100
AcDbEntity
  8
1
100
AcDbVertex
100
AcDb2dVertex
 42
0.0
 10
3.2873295E+02
 20
4.8037652E+01
 70
0
  0
SEQEND
  5
c4d
100
AcDbEntity
  0
POLYLINE
  5
c4e
100
AcDbEntity
  8
1
100
AcDb2dPolyline
  6
CENTERLINE
 62
1
 66
1
 40
2.0E-01
 41
2.0E-01
 70
0
  0
VERTEX
  5
c4f
100
AcDbEntity
  8
1
100
AcDbVertex
100
AcDb2dVertex
 42
0.0
 10
3.319338E+02
 20
4.728748E+01
 70
0
  0
VERTEX
  5
c50
100
AcDbEntity
  8
1
100
AcDbVertex
100
AcDb2dVertex
 42
0.0
 10
3.319338E+02
 20
4.4836806E+01
 70
0
  0
SEQEND
  5
c51
100
AcDbEntity
  0
POLYLINE
  5
c52
100
AcDbEntity
  8
1
100
AcDb2dPolyline
  6
CENTERLINE
 62
1
 66
1
 40
2.0E-01
 41
2.0E-01
 70
0
  0
VERTEX
  5
c53
100
AcDbEntity
  8
1
100
AcDbVertex
100
AcDb2dVertex
 42
0.0
 10
3.3539367E+02
 20
4.8037652E+01
 70
0
  0
VERTEX
  5
c54
100
AcDbEntity
  8
1
100
AcDbVertex
100
AcDb2dVertex
 42
0.0
 10
3.3579399E+02
 20
4.8037652E+01
 70
0
  0
SEQEND
  5
c55
100
AcDbEntity
  0
POLYLINE
  5
c56
100
AcDbEntity
  8
1
100
AcDb2dPolyline
  6
CENTERLINE
 62
1
 66
1
 40
2.0E-01
 41
2.0E-01
 70
0
  0
VERTEX
  5
c57
100
AcDbEntity
  8
1
100
AcDbVertex
100
AcDb2dVertex
 42
0.0
 10
3.3609423E+02
 20
4.8037652E+01
 70
0
  0
VERTEX
  5
c58
100
AcDbEntity
  8
1
100
AcDbVertex
100
AcDb2dVertex
 42
0.0
 10
3.3839436E+02
 20
4.8037652E+01
 70
0
  0
SEQEND
  5
c59
100
AcDbEntity
  0
POLYLINE
  5
c5a
100
AcDbEntity
  8
1
100
AcDb2dPolyline
  6
CENTERLINE
 62
1
 66
1
 40
2.0E-01
 41
2.0E-01
 70
0
  0
VERTEX
  5
c5b
100
AcDbEntity
  8
1
100
AcDbVertex
100
AcDb2dVertex
 42
0.0
 10
3.3869376E+02
 20
4.8037652E+01
 70
0
  0
VERTEX
  5
c5c
100
AcDbEntity
  8
1
100
AcDbVertex
100
AcDb2dVertex
 42
0.0
 10
3.3909407E+02
 20
4.8037652E+01
 70
0
  0
SEQEND
  5
c5d
100
AcDbEntity
  0
POLYLINE
  5
c5e
100
AcDbEntity
  8
1
100
AcDb2dPolyline
  6
CENTERLINE
 62
1
 66
1
 40
2.0E-01
 41
2.0E-01
 70
0
  0
VERTEX
  5
c5f
100
AcDbEntity
  8
1
100
AcDbVertex
100
AcDb2dVertex
 42
0.0
 10
3.3941365E+02
 20
4.8037652E+01
 70
0
  0
VERTEX
  5
c60
100
AcDbEntity
  8
1
100
AcDbVertex
100
AcDb2dVertex
 42
0.0
 10
3.4167426E+02
 20
4.8037652E+01
 70
0
  0
SEQEND
  5
c61
100
AcDbEntity
  0
POLYLINE
  5
c62
100
AcDbEntity
  8
1
100
AcDb2dPolyline
  6
CONTINUOUS
 62
2
 66
1
 40
3.0E-01
 41
3.0E-01
 70
0
  0
VERTEX
  5
c63
100
AcDbEntity
  8
1
100
AcDbVertex
100
AcDb2dVertex
 42
0.0
 10
2.6465312E+02
 20
2.3945161E+01
 70
0
  0
VERTEX
  5
c64
100
AcDbEntity
  8
1
100
AcDbVertex
100
AcDb2dVertex
 42
0.0
 10
2.7225744E+02
 20
2.1410387E+01
 70
0
  0
SEQEND
  5
c65
100
AcDbEntity
  0
POLYLINE
  5
c66
100
AcDbEntity
  8
1
100
AcDb2dPolyline
  6
CONTINUOUS
 62
2
 66
1
 40
2.0E-01
 41
2.0E-01
 70
0
  0
VERTEX
  5
c67
100
AcDbEntity
  8
1
100
AcDbVertex
100
AcDb2dVertex
 42
0.0
 10
2.6465312E+02
 20
2.5212548E+01
 70
0
  0
VERTEX
  5
c68
100
AcDbEntity
  8
1
100
AcDbVertex
100
AcDb2dVertex
 42
0.0
 10
2.7225744E+02
 20
2.2677774E+01
 70
0
  0
SEQEND
  5
c69
100
AcDbEntity
  0
POLYLINE
  5
c6a
100
AcDbEntity
  8
1
100
AcDb2dPolyline
  6
CONTINUOUS
 62
2
 66
1
 40
3.0E-01
 41
3.0E-01
 70
0
  0
VERTEX
  5
c6b
100
AcDbEntity
  8
1
100
AcDbVertex
100
AcDb2dVertex
 42
0.0
 10
2.570488E+02
 20
2.1410387E+01
 70
0
  0
VERTEX
  5
c6c
100
AcDbEntity
  8
1
100
AcDbVertex
100
AcDb2dVertex
 42
0.0
 10
2.6465312E+02
 20
2.3945161E+01
 70
0
  0
SEQEND
  5
c6d
100
AcDbEntity
  0
POLYLINE
  5
c6e
100
AcDbEntity
  8
1
100
AcDb2dPolyline
  6
CONTINUOUS
 62
2
 66
1
 40
2.0E-01
 41
2.0E-01
 70
0
  0
VERTEX
  5
c6f
100
AcDbEntity
  8
1
100
AcDbVertex
100
AcDb2dVertex
 42
0.0
 10
2.6980425E+02
 20
2.5604454E+01
 70
0
  0
VERTEX
  5
c70
100
AcDbEntity
  8
1
100
AcDbVertex
100
AcDb2dVertex
 42
0.0
 10
2.6980425E+02
 20
2.8699334E+01
 70
0
  0
SEQEND
  5
c71
100
AcDbEntity
  0
POLYLINE
  5
c72
100
AcDbEntity
  8
1
100
AcDb2dPolyline
  6
CONTINUOUS
 62
2
 66
1
 40
2.0E-01
 41
2.0E-01
 70
0
  0
VERTEX
  5
c73
100
AcDbEntity
  8
1
100
AcDbVertex
100
AcDb2dVertex
 42
0.0
 10
2.6700288E+02
 20
2.8699334E+01
 70
0
  0
VERTEX
  5
c74
100
AcDbEntity
  8
1
100
AcDbVertex
100
AcDb2dVertex
 42
0.0
 10
2.6700288E+02
 20
2.5604454E+01
 70
0
  0
SEQEND
  5
c75
100
AcDbEntity
  0
POLYLINE
  5
c76
100
AcDbEntity
  8
1
100
AcDb2dPolyline
  6
CONTINUOUS
 62
2
 66
1
 40
2.0E-01
 41
2.0E-01
 70
0
  0
VERTEX
  5
c77
100
AcDbEntity
  8
1
100
AcDbVertex
100
AcDb2dVertex
 42
0.0
 10
2.6532172E+02
 20
2.5604454E+01
 70
0
  0
VERTEX
  5
c78
100
AcDbEntity
  8
1
100
AcDbVertex
100
AcDb2dVertex
 42
0.0
 10
2.6532172E+02
 20
3.3474532E+01
 70
0
  0
SEQEND
  5
c79
100
AcDbEntity
  0
POLYLINE
  5
c7a
100
AcDbEntity
  8
1
100
AcDb2dPolyline
  6
CONTINUOUS
 62
2
 66
1
 40
3.0E-01
 41
3.0E-01
 70
0
  0
VERTEX
  5
c7b
100
AcDbEntity
  8
1
100
AcDbVertex
100
AcDb2dVertex
 42
0.0
 10
2.6465312E+02
 20
3.5133825E+01
 70
0
  0
VERTEX
  5
c7c
100
AcDbEntity
  8
1
100
AcDbVertex
100
AcDb2dVertex
 42
0.0
 10
2.7225744E+02
 20
3.7668599E+01
 70
0
  0
SEQEND
  5
c7d
100
AcDbEntity
  0
POLYLINE
  5
c7e
100
AcDbEntity
  8
1
100
AcDb2dPolyline
  6
CONTINUOUS
 62
2
 66
1
 40
3.0E-01
 41
3.0E-01
 70
0
  0
VERTEX
  5
c7f
100
AcDbEntity
  8
1
100
AcDbVertex
100
AcDb2dVertex
 42
0.0
 10
2.570488E+02
 20
3.7668599E+01
 70
0
  0
VERTEX
  5
c80
100
AcDbEntity
  8
1
100
AcDbVertex
100
AcDb2dVertex
 42
0.0
 10
2.6465312E+02
 20
3.5133825E+01
 70
0
  0
SEQEND
  5
c81
100
AcDbEntity
  0
TEXT
  5
c82
100
AcDbEntity
  8
1
100
AcDbText
  6
CONTINUOUS
 62
1
 10
3.500851E+02
 20
2.6667408E+01
 40
1.79974
  1
Size
100
AcDbText
  0
TEXT
  5
c83
100
AcDbEntity
  8
1
100
AcDbText
  6
CONTINUOUS
 62
5
 10
3.4950649E+02
 20
1.8500457E+01
 40
4.999745
  1
A
100
AcDbText
  0
TEXT
  5
c84
100
AcDbEntity
  8
1
100
AcDbText
  6
CONTINUOUS
 62
1
 10
3.4799269E+02
 20
1.1174506E+01
 40
1.79974
  1
Sheet No:     Number of sheets:
100
AcDbText
  0
TEXT
  5
c85
100
AcDbEntity
  8
1
100
AcDbText
  6
CONTINUOUS
 62
3
 10
3.5449615E+02
 20
1.8500457E+01
 40
3.500242
  1
3
100
AcDbText
  0
TEXT
  5
c86
100
AcDbEntity
  8
1
100
AcDbText
  6
CONTINUOUS
 62
1
 10
3.629995E+02
 20
2.6667408E+01
 40
1.79974
  1
Identification No.:
100
AcDbText
  0
TEXT
  5
c87
100
AcDbEntity
  8
1
100
AcDbText
  6
CONTINUOUS
 62
5
 10
3.629995E+02
 20
1.8481955E+01
 40
3.500242
  1
LHS-151-001
100
AcDbText
  0
POLYLINE
  5
c88
100
AcDbEntity
  8
1
100
AcDb2dPolyline
  6
CONTINUOUS
 62
3
 66
1
 40
3.0E-01
 41
3.0E-01
 70
0
  0
VERTEX
  5
c89
100
AcDbEntity
  8
1
100
AcDbVertex
100
AcDb2dVertex
 42
0.0
 10
3.4600036E+02
 20
1.6176774E+01
 70
0
  0
VERTEX
  5
c8a
100
AcDbEntity
  8
1
100
AcDbVertex
100
AcDb2dVertex
 42
0.0
 10
3.6100044E+02
 20
1.6176774E+01
 70
0
  0
SEQEND
  5
c8b
100
AcDbEntity
  0
TEXT
  5
c8c
100
AcDbEntity
  8
1
100
AcDbText
  6
CONTINUOUS
 62
3
 10
3.655225E+02
 20
1.1174506E+01
 40
2.500293
  1
X
100
AcDbText
  0
TEXT
  5
c8d
100
AcDbEntity
  8
1
100
AcDbText
  6
CONTINUOUS
 62
3
 10
4.051992E+02
 20
1.1174506E+01
 40
2.500293
  1
X
100
AcDbText
  0
TEXT
  5
c8e
100
AcDbEntity
  8
1
100
AcDbText
  6
CONTINUOUS
 62
1
 10
3.502533E+02
 20
5.5168898E+01
 40
2.500293
  1
Revision
 50
9.0E+01
100
AcDbText
  0
POLYLINE
  5
c8f
100
AcDbEntity
  8
1
100
AcDb2dPolyline
  6
CONTINUOUS
 62
3
 66
1
 40
2.0E-01
 41
2.0E-01
 70
0
  0
VERTEX
  5
c90
100
AcDbEntity
  8
1
100
AcDbVertex
100
AcDb2dVertex
 42
0.0
 10
3.5200006E+02
 20
7.7176186E+01
 70
0
  0
VERTEX
  5
c91
100
AcDbEntity
  8
1
100
AcDbVertex
100
AcDb2dVertex
 42
0.0
 10
3.5200006E+02
 20
4.7176875E+01
 70
0
  0
SEQEND
  5
c92
100
AcDbEntity
  0
POLYLINE
  5
c93
100
AcDbEntity
  8
1
100
AcDb2dPolyline
  6
CONTINUOUS
 62
3
 66
1
 40
2.0E-01
 41
2.0E-01
 70
0
  0
VERTEX
  5
c94
100
AcDbEntity
  8
1
100
AcDbVertex
100
AcDb2dVertex
 42
0.0
 10
3.5799975E+02
 20
7.7176186E+01
 70
0
  0
VERTEX
  5
c95
100
AcDbEntity
  8
1
100
AcDbVertex
100
AcDb2dVertex
 42
0.0
 10
3.5799975E+02
 20
4.7176875E+01
 70
0
  0
SEQEND
  5
c96
100
AcDbEntity
  0
POLYLINE
  5
c97
100
AcDbEntity
  8
1
100
AcDb2dPolyline
  6
CONTINUOUS
 62
3
 66
1
 40
2.0E-01
 41
2.0E-01
 70
0
  0
VERTEX
  5
c98
100
AcDbEntity
  8
1
100
AcDbVertex
100
AcDb2dVertex
 42
0.0
 10
3.5200006E+02
 20
5.9176263E+01
 70
0
  0
VERTEX
  5
c99
100
AcDbEntity
  8
1
100
AcDbVertex
100
AcDb2dVertex
 42
0.0
 10
4.1400026E+02
 20
5.9176263E+01
 70
0
  0
SEQEND
  5
c9a
100
AcDbEntity
  0
POLYLINE
  5
c9b
100
AcDbEntity
  8
1
100
AcDb2dPolyline
  6
CONTINUOUS
 62
3
 66
1
 40
2.0E-01
 41
2.0E-01
 70
0
  0
VERTEX
  5
c9c
100
AcDbEntity
  8
1
100
AcDbVertex
100
AcDb2dVertex
 42
0.0
 10
3.5200006E+02
 20
6.5175957E+01
 70
0
  0
VERTEX
  5
c9d
100
AcDbEntity
  8
1
100
AcDbVertex
100
AcDb2dVertex
 42
0.0
 10
4.1400026E+02
 20
6.5175957E+01
 70
0
  0
SEQEND
  5
c9e
100
AcDbEntity
  0
POLYLINE
  5
c9f
100
AcDbEntity
  8
1
100
AcDb2dPolyline
  6
CONTINUOUS
 62
3
 66
1
 40
2.0E-01
 41
2.0E-01
 70
0
  0
VERTEX
  5
ca0
100
AcDbEntity
  8
1
100
AcDbVertex
100
AcDb2dVertex
 42
0.0
 10
3.5200006E+02
 20
7.1176492E+01
 70
0
  0
VERTEX
  5
ca1
100
AcDbEntity
  8
1
100
AcDbVertex
100
AcDb2dVertex
 42
0.0
 10
4.1400026E+02
 20
7.1176492E+01
 70
0
  0
SEQEND
  5
ca2
100
AcDbEntity
  0
TEXT
  5
ca3
100
AcDbEntity
  8
1
100
AcDbText
  6
CONTINUOUS
 62
1
 10
3.537485E+02
 20
6.6924396E+01
 40
2.500293
  1
A
100
AcDbText
  0
TEXT
  5
ca4
100
AcDbEntity
  8
1
100
AcDbText
  6
CONTINUOUS
 62
1
 10
3.537485E+02
 20
6.0924702E+01
 40
2.500293
  1
B
100
AcDbText
  0
TEXT
  5
ca5
100
AcDbEntity
  8
1
100
AcDbText
  6
CONTINUOUS
 62
1
 10
3.537485E+02
 20
4.8926155E+01
 40
2.500293
  1
D
100
AcDbText
  0
TEXT
  5
ca6
100
AcDbEntity
  8
1
100
AcDbText
  6
CONTINUOUS
 62
1
 10
3.6800849E+02
 20
7.2923249E+01
 40
2.500293
  1
Date
100
AcDbText
  0
POLYLINE
  5
ca7
100
AcDbEntity
  8
1
100
AcDb2dPolyline
  6
CONTINUOUS
 62
3
 66
1
 40
2.0E-01
 41
2.0E-01
 70
0
  0
VERTEX
  5
ca8
100
AcDbEntity
  8
1
100
AcDbVertex
100
AcDb2dVertex
 42
0.0
 10
3.8750035E+02
 20
4.7176875E+01
 70
0
  0
VERTEX
  5
ca9
100
AcDbEntity
  8
1
100
AcDbVertex
100
AcDb2dVertex
 42
0.0
 10
3.8750035E+02
 20
7.7176186E+01
 70
0
  0
SEQEND
  5
caa
100
AcDbEntity
  0
TEXT
  5
cab
100
AcDbEntity
  8
1
100
AcDbText
  6
CONTINUOUS
 62
1
 10
3.9574215E+02
 20
7.2923249E+01
 40
2.500293
  1
Name
100
AcDbText
  0
POLYLINE
  5
cac
100
AcDbEntity
  8
1
100
AcDb2dPolyline
  6
CONTINUOUS
 62
3
 66
1
 40
3.0E-01
 41
3.0E-01
 70
0
  0
VERTEX
  5
cad
100
AcDbEntity
  8
1
100
AcDbVertex
100
AcDb2dVertex
 42
0.0
 10
2.3400019E+02
 20
8.5176619E+01
 70
0
  0
VERTEX
  5
cae
100
AcDbEntity
  8
1
100
AcDbVertex
100
AcDb2dVertex
 42
0.0
 10
4.1400026E+02
 20
8.5176619E+01
 70
0
  0
SEQEND
  5
caf
100
AcDbEntity
  0
POLYLINE
  5
cb0
100
AcDbEntity
  8
1
100
AcDb2dPolyline
  6
CONTINUOUS
 62
3
 66
1
 40
2.0E-01
 41
2.0E-01
 70
0
  0
VERTEX
  5
cb1
100
AcDbEntity
  8
1
100
AcDbVertex
100
AcDb2dVertex
 42
0.0
 10
2.3400019E+02
 20
9.3176211E+01
 70
0
  0
VERTEX
  5
cb2
100
AcDbEntity
  8
1
100
AcDbVertex
100
AcDb2dVertex
 42
0.0
 10
4.1400026E+02
 20
9.3176211E+01
 70
0
  0
SEQEND
  5
cb3
100
AcDbEntity
  0
POLYLINE
  5
cb4
100
AcDbEntity
  8
1
100
AcDb2dPolyline
  6
CONTINUOUS
 62
3
 66
1
 40
2.0E-01
 41
2.0E-01
 70
0
  0
VERTEX
  5
cb5
100
AcDbEntity
  8
1
100
AcDbVertex
100
AcDb2dVertex
 42
0.0
 10
2.4600042E+02
 20
7.7176186E+01
 70
0
  0
VERTEX
  5
cb6
100
AcDbEntity
  8
1
100
AcDbVertex
100
AcDb2dVertex
 42
0.0
 10
2.4600042E+02
 20
8.5176619E+01
 70
0
  0
SEQEND
  5
cb7
100
AcDbEntity
  0
POLYLINE
  5
cb8
100
AcDbEntity
  8
1
100
AcDb2dPolyline
  6
CONTINUOUS
 62
3
 66
1
 40
2.0E-01
 41
2.0E-01
 70
0
  0
VERTEX
  5
cb9
100
AcDbEntity
  8
1
100
AcDbVertex
100
AcDb2dVertex
 42
0.0
 10
2.5799981E+02
 20
7.7176186E+01
 70
0
  0
VERTEX
  5
cba
100
AcDbEntity
  8
1
100
AcDbVertex
100
AcDb2dVertex
 42
0.0
 10
2.5799981E+02
 20
8.5176619E+01
 70
0
  0
SEQEND
  5
cbb
100
AcDbEntity
  0
TEXT
  5
cbc
100
AcDbEntity
  8
1
100
AcDbText
  6
CONTINUOUS
 62
1
 10
2.355039E+02
 20
8.1669649E+01
 40
2.500293
  1
PART
100
AcDbText
  0
TEXT
  5
cbd
100
AcDbEntity
  8
1
100
AcDbText
  6
CONTINUOUS
 62
1
 10
2.373541E+02
 20
7.8174453E+01
 40
2.500293
  1
NO.
100
AcDbText
  0
TEXT
  5
cbe
100
AcDbEntity
  8
1
100
AcDbText
  6
CONTINUOUS
 62
1
 10
2.479877E+02
 20
8.1669649E+01
 40
2.500293
  1
NUM-
100
AcDbText
  0
TEXT
  5
cbf
100
AcDbEntity
  8
1
100
AcDbText
  6
CONTINUOUS
 62
1
 10
2.4823075E+02
 20
7.8174453E+01
 40
2.500293
  1
BER
100
AcDbText
  0
POLYLINE
  5
cc0
100
AcDbEntity
  8
1
100
AcDb2dPolyline
  6
CONTINUOUS
 62
3
 66
1
 40
2.0E-01
 41
2.0E-01
 70
0
  0
VERTEX
  5
cc1
100
AcDbEntity
  8
1
100
AcDbVertex
100
AcDb2dVertex
 42
0.0
 10
3.1300037E+02
 20
7.7176186E+01
 70
0
  0
VERTEX
  5
cc2
100
AcDbEntity
  8
1
100
AcDbVertex
100
AcDb2dVertex
 42
0.0
 10
3.1300037E+02
 20
8.5176619E+01
 70
0
  0
SEQEND
  5
cc3
100
AcDbEntity
  0
POLYLINE
  5
cc4
100
AcDbEntity
  8
1
100
AcDb2dPolyline
  6
CONTINUOUS
 62
230
 66
1
 40
2.0E-01
 41
2.0E-01
 70
0
  0
VERTEX
  5
cc5
100
AcDbEntity
  8
1
100
AcDbVertex
100
AcDb2dVertex
 42
0.0
 10
3.4600036E+02
 20
9.9997483
 70
0
  0
VERTEX
  5
cc6
100
AcDbEntity
  8
1
100
AcDbVertex
100
AcDb2dVertex
 42
0.0
 10
3.4600036E+02
 20
3.9433899E+01
 70
0
  0
SEQEND
  5
cc7
100
AcDbEntity
  0
POLYLINE
  5
cc8
100
AcDbEntity
  8
1
100
AcDb2dPolyline
  6
CONTINUOUS
 62
3
 66
1
 40
2.0E-01
 41
2.0E-01
 70
0
  0
VERTEX
  5
cc9
100
AcDbEntity
  8
1
100
AcDbVertex
100
AcDb2dVertex
 42
0.0
 10
3.7900036E+02
 20
7.7176186E+01
 70
0
  0
VERTEX
  5
cca
100
AcDbEntity
  8
1
100
AcDbVertex
100
AcDb2dVertex
 42
0.0
 10
3.7900036E+02
 20
8.5176619E+01
 70
0
  0
SEQEND
  5
ccb
100
AcDbEntity
  0
TEXT
  5
ccc
100
AcDbEntity
  8
1
100
AcDbText
  6
CONTINUOUS
 62
1
 10
2.7899285E+02
 20
7.9931302E+01
 40
2.500293
  1
TITLE
100
AcDbText
  0
TEXT
  5
ccd
100
AcDbEntity
  8
1
100
AcDbText
  6
CONTINUOUS
 62
1
 10
3.1949205E+02
 20
7.9931302E+01
 40
2.500293
  1
MATERIAL
100
AcDbText
  0
TEXT
  5
cce
100
AcDbEntity
  8
1
100
AcDbText
  6
CONTINUOUS
 62
1
 10
3.5150555E+02
 20
7.9931302E+01
 40
2.500293
  1
SIZE/NOTE
100
AcDbText
  0
TEXT
  5
ccf
100
AcDbEntity
  8
1
100
AcDbText
  6
CONTINUOUS
 62
1
 10
3.7774475E+02
 20
7.9931302E+01
 40
2.500293
  1
 I.D. NO./NORM
100
AcDbText
  0
POLYLINE
  5
cd0
100
AcDbEntity
  8
1
100
AcDb2dPolyline
  6
CONTINUOUS
 62
2
 66
1
 40
2.0E-01
 41
2.0E-01
 70
0
  0
VERTEX
  5
cd1
100
AcDbEntity
  8
1
100
AcDbVertex
100
AcDb2dVertex
 42
0.0
 10
2.4515286E+02
 20
2.6039251E+01
 70
0
  0
VERTEX
  5
cd2
100
AcDbEntity
  8
1
100
AcDbVertex
100
AcDb2dVertex
 42
0.0
 10
2.4515286E+02
 20
3.3039735E+01
 70
0
  0
SEQEND
  5
cd3
100
AcDbEntity
  0
POLYLINE
  5
cd4
100
AcDbEntity
  8
1
100
AcDb2dPolyline
  6
CONTINUOUS
 62
2
 66
1
 40
2.0E-01
 41
2.0E-01
 70
0
  0
VERTEX
  5
cd5
100
AcDbEntity
  8
1
100
AcDbVertex
100
AcDb2dVertex
 42
0.0
 10
2.4965305E+02
 20
2.788861E+01
 70
0
  0
VERTEX
  5
cd6
100
AcDbEntity
  8
1
100
AcDbVertex
100
AcDb2dVertex
 42
0.0
 10
2.4965305E+02
 20
3.3039735E+01
 70
0
  0
SEQEND
  5
cd7
100
AcDbEntity
  0
POLYLINE
  5
cd8
100
AcDbEntity
  8
1
100
AcDb2dPolyline
  6
CONTINUOUS
 62
2
 66
1
 40
2.0E-01
 41
2.0E-01
 70
0
  0
VERTEX
  5
cd9
100
AcDbEntity
  8
1
100
AcDbVertex
100
AcDb2dVertex
 42
0.0
 10
2.5415324E+02
 20
2.6039251E+01
 70
0
  0
VERTEX
  5
cda
100
AcDbEntity
  8
1
100
AcDbVertex
100
AcDb2dVertex
 42
0.0
 10
2.5415324E+02
 20
3.3039735E+01
 70
0
  0
SEQEND
  5
cdb
100
AcDbEntity
  0
POLYLINE
  5
cdc
100
AcDbEntity
  8
1
100
AcDb2dPolyline
  6
CONTINUOUS
 62
2
 66
1
 40
2.0E-01
 41
2.0E-01
 70
0
  0
VERTEX
  5
cdd
100
AcDbEntity
  8
1
100
AcDbVertex
100
AcDb2dVertex
 42
0.0
 10
2.7315311E+02
 20
2.6039251E+01
 70
0
  0
VERTEX
  5
cde
100
AcDbEntity
  8
1
100
AcDbVertex
100
AcDb2dVertex
 42
0.0
 10
2.7315311E+02
 20
3.3039735E+01
 70
0
  0
SEQEND
  5
cdf
100
AcDbEntity
  0
POLYLINE
  5
ce0
100
AcDbEntity
  8
1
100
AcDb2dPolyline
  6
CONTINUOUS
 62
2
 66
1
 40
2.0E-01
 41
2.0E-01
 70
0
  0
VERTEX
  5
ce1
100
AcDbEntity
  8
1
100
AcDbVertex
100
AcDb2dVertex
 42
0.0
 10
2.8015359E+02
 20
2.6039251E+01
 70
0
  0
VERTEX
  5
ce2
100
AcDbEntity
  8
1
100
AcDbVertex
100
AcDb2dVertex
 42
0.0
 10
2.8015359E+02
 20
3.3039735E+01
 70
0
  0
SEQEND
  5
ce3
100
AcDbEntity
  0
POLYLINE
  5
ce4
100
AcDbEntity
  8
1
100
AcDb2dPolyline
  6
CONTINUOUS
 62
2
 66
1
 40
2.0E-01
 41
2.0E-01
 70
0
  0
VERTEX
  5
ce5
100
AcDbEntity
  8
1
100
AcDbVertex
100
AcDb2dVertex
 42
0.0
 10
2.461528E+02
 20
3.1483885E+01
 70
0
  0
VERTEX
  5
ce6
100
AcDbEntity
  8
1
100
AcDbVertex
100
AcDb2dVertex
 42
0.0
 10
2.4965305E+02
 20
2.6039251E+01
 70
0
  0
SEQEND
  5
ce7
100
AcDbEntity
  0
POLYLINE
  5
ce8
100
AcDbEntity
  8
1
100
AcDb2dPolyline
  6
CONTINUOUS
 62
2
 66
1
 40
2.0E-01
 41
2.0E-01
 70
0
  0
VERTEX
  5
ce9
100
AcDbEntity
  8
1
100
AcDbVertex
100
AcDb2dVertex
 42
0.0
 10
2.461528E+02
 20
2.6039251E+01
 70
0
  0
VERTEX
  5
cea
100
AcDbEntity
  8
1
100
AcDbVertex
100
AcDb2dVertex
 42
0.0
 10
2.461528E+02
 20
3.1483885E+01
 70
0
  0
SEQEND
  5
ceb
100
AcDbEntity
  0
POLYLINE
  5
cec
100
AcDbEntity
  8
1
100
AcDb2dPolyline
  6
CONTINUOUS
 62
2
 66
1
 40
2.0E-01
 41
2.0E-01
 70
0
  0
VERTEX
  5
ced
100
AcDbEntity
  8
1
100
AcDbVertex
100
AcDb2dVertex
 42
0.0
 10
2.4634203E+02
 20
3.3039735E+01
 70
0
  0
VERTEX
  5
cee
100
AcDbEntity
  8
1
100
AcDbVertex
100
AcDb2dVertex
 42
0.0
 10
2.4965305E+02
 20
2.788861E+01
 70
0
  0
SEQEND
  5
cef
100
AcDbEntity
  0
POLYLINE
  5
cf0
100
AcDbEntity
  8
1
100
AcDb2dPolyline
  6
CONTINUOUS
 62
2
 66
1
 40
2.0E-01
 41
2.0E-01
 70
0
  0
VERTEX
  5
cf1
100
AcDbEntity
  8
1
100
AcDbVertex
100
AcDb2dVertex
 42
0.0
 10
2.50653E+02
 20
2.6039251E+01
 70
0
  0
VERTEX
  5
cf2
100
AcDbEntity
  8
1
100
AcDbVertex
100
AcDb2dVertex
 42
0.0
 10
2.50653E+02
 20
3.3039735E+01
 70
0
  0
SEQEND
  5
cf3
100
AcDbEntity
  0
POLYLINE
  5
cf4
100
AcDbEntity
  8
1
100
AcDb2dPolyline
  6
CONTINUOUS
 62
2
 66
1
 40
2.0E-01
 41
2.0E-01
 70
0
  0
VERTEX
  5
cf5
100
AcDbEntity
  8
1
100
AcDbVertex
100
AcDb2dVertex
 42
0.0
 10
2.5515319E+02
 20
2.6039251E+01
 70
0
  0
VERTEX
  5
cf6
100
AcDbEntity
  8
1
100
AcDbVertex
100
AcDb2dVertex
 42
0.0
 10
2.5515319E+02
 20
3.3039735E+01
 70
0
  0
SEQEND
  5
cf7
100
AcDbEntity
  0
POLYLINE
  5
cf8
100
AcDbEntity
  8
1
100
AcDb2dPolyline
  6
CONTINUOUS
 62
2
 66
1
 40
2.0E-01
 41
2.0E-01
 70
0
  0
VERTEX
  5
cf9
100
AcDbEntity
  8
1
100
AcDbVertex
100
AcDb2dVertex
 42
0.0
 10
2.8115354E+02
 20
2.6039251E+01
 70
0
  0
VERTEX
  5
cfa
100
AcDbEntity
  8
1
100
AcDbVertex
100
AcDb2dVertex
 42
0.0
 10
2.8115354E+02
 20
2.9039939E+01
 70
0
  0
SEQEND
  5
cfb
100
AcDbEntity
  0
TEXT
  5
cfc
100
AcDbEntity
  8
1
100
AcDbText
  6
CONTINUOUS
 62
1
 10
2.364946E+02
 20
6.0687421E+01
 40
2.500293
  1
Title:
100
AcDbText
  0
TEXT
  5
cfd
100
AcDbEntity
  8
1
100
AcDbText
  6
CONTINUOUS
 62
5
 10
2.550521E+02
 20
6.0276172E+01
 40
4.0
  1
Buitenbak innertrack cryo
 41
7.5E-01
100
AcDbText
  0
TEXT
  5
cfe
100
AcDbEntity
  8
1
100
AcDbText
  6
CONTINUOUS
 62
3
 10
2.5800569E+02
 20
7.0418751E+01
 40
3.500242
  1
LHCb Outertracker / Rail Table
 41
7.5E-01
100
AcDbText
  0
TEXT
  5
cff
100
AcDbEntity
  8
1
100
AcDbText
  6
CONTINUOUS
 62
1
 10
2.364946E+02
 20
7.0923351E+01
 40
2.500293
  1
Project:
100
AcDbText
  0
POLYLINE
  5
d00
100
AcDbEntity
  8
1
100
AcDb2dPolyline
  6
CONTINUOUS
 62
5
 66
1
 40
4.0E-01
 41
4.0E-01
 70
0
  0
VERTEX
  5
d01
100
AcDbEntity
  8
1
100
AcDbVertex
100
AcDb2dVertex
 42
0.0
 10
3.6100044E+02
 20
3.117685E+01
 70
0
  0
VERTEX
  5
d02
100
AcDbEntity
  8
1
100
AcDbVertex
100
AcDb2dVertex
 42
0.0
 10
4.1400026E+02
 20
3.117685E+01
 70
0
  0
SEQEND
  5
d03
100
AcDbEntity
  0
POLYLINE
  5
d04
100
AcDbEntity
  8
1
100
AcDb2dPolyline
  6
CONTINUOUS
 62
3
 66
1
 40
3.0E-01
 41
3.0E-01
 70
0
  0
VERTEX
  5
d05
100
AcDbEntity
  8
1
100
AcDbVertex
100
AcDb2dVertex
 42
0.0
 10
3.4600036E+02
 20
4.7176875E+01
 70
0
  0
VERTEX
  5
d06
100
AcDbEntity
  8
1
100
AcDbVertex
100
AcDb2dVertex
 42
0.0
 10
4.1400026E+02
 20
4.7176875E+01
 70
0
  0
SEQEND
  5
d07
100
AcDbEntity
  0
POLYLINE
  5
d08
100
AcDbEntity
  8
1
100
AcDb2dPolyline
  6
CONTINUOUS
 62
3
 66
1
 40
2.0E-01
 41
2.0E-01
 70
0
  0
VERTEX
  5
d09
100
AcDbEntity
  8
1
100
AcDbVertex
100
AcDb2dVertex
 42
0.0
 10
3.4600036E+02
 20
3.9176442E+01
 70
0
  0
VERTEX
  5
d0a
100
AcDbEntity
  8
1
100
AcDbVertex
100
AcDb2dVertex
 42
0.0
 10
3.4600036E+02
 20
3.9176442E+01
 70
0
  0
SEQEND
  5
d0b
100
AcDbEntity
  0
POLYLINE
  5
d0c
100
AcDbEntity
  8
1
100
AcDb2dPolyline
  6
CONTINUOUS
 62
3
 66
1
 40
2.0E-01
 41
2.0E-01
 70
0
  0
VERTEX
  5
d0d
100
AcDbEntity
  8
1
100
AcDbVertex
100
AcDb2dVertex
 42
0.0
 10
3.7099993E+02
 20
3.117685E+01
 70
0
  0
VERTEX
  5
d0e
100
AcDbEntity
  8
1
100
AcDbVertex
100
AcDb2dVertex
 42
0.0
 10
3.7099993E+02
 20
4.7176875E+01
 70
0
  0
SEQEND
  5
d0f
100
AcDbEntity
  0
POLYLINE
  5
d10
100
AcDbEntity
  8
1
100
AcDb2dPolyline
  6
CONTINUOUS
 62
3
 66
1
 40
2.0E-01
 41
2.0E-01
 70
0
  0
VERTEX
  5
d11
100
AcDbEntity
  8
1
100
AcDbVertex
100
AcDb2dVertex
 42
0.0
 10
3.9600034E+02
 20
3.117685E+01
 70
0
  0
VERTEX
  5
d12
100
AcDbEntity
  8
1
100
AcDbVertex
100
AcDb2dVertex
 42
0.0
 10
3.9600034E+02
 20
4.7176875E+01
 70
0
  0
SEQEND
  5
d13
100
AcDbEntity
  0
TEXT
  5
d14
100
AcDbEntity
  8
1
100
AcDbText
  6
CONTINUOUS
 62
3
 10
3.4595495E+02
 20
3.2498902E+01
 40
2.500293
  1
ISO-2768-mK-E
 41
7.5983855E-01
100
AcDbText
  0
TEXT
  5
d15
100
AcDbEntity
  8
1
100
AcDbText
  6
CONTINUOUS
 62
3
 10
3.734279E+02
 20
3.2498902E+01
 40
2.500293
  1
ISO-8015-E
 41
7.9986546E-01
100
AcDbText
  0
TEXT
  5
d16
100
AcDbEntity
  8
1
100
AcDbText
  6
CONTINUOUS
 62
1
 10
3.717274E+02
 20
4.4664808E+01
 40
1.79974
  1
Geometrical tolerances
 41
6.0E-01
100
AcDbText
  0
TEXT
  5
d17
100
AcDbEntity
  8
1
100
AcDbText
  6
CONTINUOUS
 62
1
 10
3.7888515E+02
 20
4.1973608E+01
 40
1.79974
  1
unless 
 41
7.5E-01
100
AcDbText
  0
TEXT
  5
d18
100
AcDbEntity
  8
1
100
AcDbText
  6
CONTINUOUS
 62
1
 10
3.7213864E+02
 20
3.9263906E+01
 40
1.79974
  1
otherwise stated 
 41
7.5E-01
100
AcDbText
  0
TEXT
  5
d19
100
AcDbEntity
  8
1
100
AcDbText
  6
CONTINUOUS
 62
1
 10
3.7550264E+02
 20
3.6572706E+01
 40
1.79974
  1
according to
 41
7.5E-01
100
AcDbText
  0
TEXT
  5
d1a
100
AcDbEntity
  8
1
100
AcDbText
  6
CONTINUOUS
 62
3
 10
3.9693889E+02
 20
3.2498902E+01
 40
2.500293
  1
DIN 1302
 41
7.9986546E-01
100
AcDbText
  0
TEXT
  5
d1b
100
AcDbEntity
  8
1
100
AcDbText
  6
CONTINUOUS
 62
1
 10
3.99181E+02
 20
4.4664808E+01
 40
1.79974
  1
Roughness
 41
7.5E-01
100
AcDbText
  0
TEXT
  5
d1c
100
AcDbEntity
  8
1
100
AcDbText
  6
CONTINUOUS
 62
1
 10
4.005266E+02
 20
4.1973608E+01
 40
1.79974
  1
unless 
 41
7.5E-01
100
AcDbText
  0
TEXT
  5
d1d
100
AcDbEntity
  8
1
100
AcDbText
  6
CONTINUOUS
 62
1
 10
3.969759E+02
 20
3.9263906E+01
 40
1.79974
  1
otherwise stated 
 41
5.5E-01
100
AcDbText
  0
TEXT
  5
d1e
100
AcDbEntity
  8
1
100
AcDbText
  6
CONTINUOUS
 62
1
 10
3.9740565E+02
 20
3.6572706E+01
 40
1.79974
  1
according to
 41
7.0E-01
100
AcDbText
  0
TEXT
  5
d1f
100
AcDbEntity
  8
1
100
AcDbText
  6
CONTINUOUS
 62
1
 10
3.4645955E+02
 20
4.4664808E+01
 40
1.79974
  1
General tolerances
 41
7.5E-01
100
AcDbText
  0
TEXT
  5
d20
100
AcDbEntity
  8
1
100
AcDbText
  6
CONTINUOUS
 62
1
 10
3.5387969E+02
 20
4.1973608E+01
 40
1.79974
  1
unless 
 41
7.5E-01
100
AcDbText
  0
TEXT
  5
d21
100
AcDbEntity
  8
1
100
AcDbText
  6
CONTINUOUS
 62
1
 10
3.4713235E+02
 20
3.9263906E+01
 40
1.79974
  1
otherwise stated 
 41
7.5E-01
100
AcDbText
  0
TEXT
  5
d22
100
AcDbEntity
  8
1
100
AcDbText
  6
CONTINUOUS
 62
1
 10
3.5051569E+02
 20
3.6572706E+01
 40
1.79974
  1
according to
 41
7.5E-01
100
AcDbText
  0
TEXT
  5
d23
100
AcDbEntity
  8
1
100
AcDbText
  6
CONTINUOUS
 62
1
 10
3.490759E+02
 20
1.2538608E+01
 40
1.79974
  1
 
100
AcDbText
  0
TEXT
  5
d24
100
AcDbEntity
  8
1
100
AcDbText
  6
CONTINUOUS
 62
1
 10
2.356725E+02
 20
1.7429294E+01
 40
1.9
  1
NATIONAL INSTITUTE FOR NUCLEAR PHYSICS,
 41
7.9983179E-01
100
AcDbText
  0
TEXT
  5
d25
100
AcDbEntity
  8
1
100
AcDbText
  6
CONTINUOUS
 62
1
 10
2.4744508E+02
 20
1.410226E+01
 40
1.9
  1
AND HIGH ENERGY PHYSICS
 41
7.9983179E-01
100
AcDbText
  0
TEXT
  5
d26
100
AcDbEntity
  8
1
100
AcDbText
  6
CONTINUOUS
 62
1
 10
2.3490472E+02
 20
1.0775227E+01
 40
2.0
  1
P.O.41882,1009 DB Amsterdam,The Netherlands
 41
7.0016821E-01
100
AcDbText
  0
POLYLINE
  5
d27
100
AcDbEntity
  8
1
100
AcDb2dPolyline
  6
CONTINUOUS
 62
5
 66
1
 40
4.0E-01
 41
4.0E-01
 70
0
  0
VERTEX
  5
d28
100
AcDbEntity
  8
1
100
AcDbVertex
100
AcDb2dVertex
 42
0.0
 10
2.3400019E+02
 20
1.011758E+02
 70
0
  0
VERTEX
  5
d29
100
AcDbEntity
  8
1
100
AcDbVertex
100
AcDb2dVertex
 42
0.0
 10
2.3400019E+02
 20
8.5176619E+01
 70
0
  0
SEQEND
  5
d2a
100
AcDbEntity
  0
POLYLINE
  5
d2b
100
AcDbEntity
  8
1
100
AcDb2dPolyline
  6
CONTINUOUS
 62
2
 66
1
 40
2.0E-01
 41
2.0E-01
 70
0
  0
VERTEX
  5
d2c
100
AcDbEntity
  8
1
100
AcDbVertex
100
AcDb2dVertex
 42
0.0
 10
2.570488E+02
 20
3.6401212E+01
 70
0
  0
VERTEX
  5
d2d
100
AcDbEntity
  8
1
100
AcDbVertex
100
AcDb2dVertex
 42
0.0
 10
2.6465312E+02
 20
3.3866438E+01
 70
0
  0
SEQEND
  5
d2e
100
AcDbEntity
  0
POLYLINE
  5
d2f
100
AcDbEntity
  8
1
100
AcDb2dPolyline
  6
CONTINUOUS
 62
2
 66
1
 40
2.0E-01
 41
2.0E-01
 70
0
  0
VERTEX
  5
d30
100
AcDbEntity
  8
1
100
AcDbVertex
100
AcDb2dVertex
 42
0.0
 10
2.570488E+02
 20
2.2677774E+01
 70
0
  0
VERTEX
  5
d31
100
AcDbEntity
  8
1
100
AcDbVertex
100
AcDb2dVertex
 42
0.0
 10
2.6465312E+02
 20
2.5212548E+01
 70
0
  0
SEQEND
  5
d32
100
AcDbEntity
  0
POLYLINE
  5
d33
100
AcDbEntity
  8
1
100
AcDb2dPolyline
  6
CONTINUOUS
 62
2
 66
1
 40
2.0E-01
 41
2.0E-01
 70
0
  0
VERTEX
  5
d34
100
AcDbEntity
  8
1
100
AcDbVertex
100
AcDb2dVertex
 42
0.0
 10
2.756534E+02
 20
2.9039939E+01
 70
0
  0
VERTEX
  5
d35
100
AcDbEntity
  8
1
100
AcDbVertex
100
AcDb2dVertex
 42
0.0
 10
2.756534E+02
 20
3.0039888E+01
 70
0
  0
SEQEND
  5
d36
100
AcDbEntity
  0
POLYLINE
  5
d37
100
AcDbEntity
  8
1
100
AcDb2dPolyline
  6
CONTINUOUS
 62
2
 66
1
 40
2.0E-01
 41
2.0E-01
 70
0
  0
VERTEX
  5
d38
100
AcDbEntity
  8
1
100
AcDbVertex
100
AcDb2dVertex
 42
0.0
 10
2.776533E+02
 20
3.2039786E+01
 70
0
  0
VERTEX
  5
d39
100
AcDbEntity
  8
1
100
AcDbVertex
100
AcDb2dVertex
 42
0.0
 10
2.776533E+02
 20
3.3039735E+01
 70
0
  0
SEQEND
  5
d3a
100
AcDbEntity
  0
POLYLINE
  5
d3b
100
AcDbEntity
  8
1
100
AcDb2dPolyline
  6
CONTINUOUS
 62
2
 66
1
 40
2.0E-01
 41
2.0E-01
 70
0
  0
VERTEX
  5
d3c
100
AcDbEntity
  8
1
100
AcDbVertex
100
AcDb2dVertex
 42
0.0
 10
2.8265305E+02
 20
2.9039939E+01
 70
0
  0
VERTEX
  5
d3d
100
AcDbEntity
  8
1
100
AcDbVertex
100
AcDb2dVertex
 42
0.0
 10
2.8265305E+02
 20
3.0039888E+01
 70
0
  0
SEQEND
  5
d3e
100
AcDbEntity
  0
POLYLINE
  5
d3f
100
AcDbEntity
  8
1
100
AcDb2dPolyline
  6
CONTINUOUS
 62
2
 66
1
 40
2.0E-01
 41
2.0E-01
 70
0
  0
VERTEX
  5
d40
100
AcDbEntity
  8
1
100
AcDbVertex
100
AcDb2dVertex
 42
0.0
 10
2.8115354E+02
 20
3.0039888E+01
 70
0
  0
VERTEX
  5
d41
100
AcDbEntity
  8
1
100
AcDbVertex
100
AcDb2dVertex
 42
0.0
 10
2.8115354E+02
 20
3.2039786E+01
 70
0
  0
SEQEND
  5
d42
100
AcDbEntity
  0
POLYLINE
  5
d43
100
AcDbEntity
  8
1
100
AcDb2dPolyline
  6
CONTINUOUS
 62
2
 66
1
 40
2.0E-01
 41
2.0E-01
 70
0
  0
VERTEX
  5
d44
100
AcDbEntity
  8
1
100
AcDbVertex
100
AcDb2dVertex
 42
0.0
 10
2.8465294E+02
 20
3.2039786E+01
 70
0
  0
VERTEX
  5
d45
100
AcDbEntity
  8
1
100
AcDbVertex
100
AcDb2dVertex
 42
0.0
 10
2.8465294E+02
 20
3.3039735E+01
 70
0
  0
SEQEND
  5
d46
100
AcDbEntity
  0
POLYLINE
  5
d47
100
AcDbEntity
  8
1
100
AcDb2dPolyline
  6
CONTINUOUS
 62
5
 66
1
 40
4.0E-01
 41
4.0E-01
 70
0
  0
VERTEX
  5
d48
100
AcDbEntity
  8
1
100
AcDbVertex
100
AcDb2dVertex
 42
0.0
 10
2.3400019E+02
 20
8.5176619E+01
 70
0
  0
VERTEX
  5
d49
100
AcDbEntity
  8
1
100
AcDbVertex
100
AcDb2dVertex
 42
0.0
 10
2.3400019E+02
 20
5.175653
 70
0
  0
SEQEND
  5
d4a
100
AcDbEntity
  0
POLYLINE
  5
d4b
100
AcDbEntity
  8
1
100
AcDb2dPolyline
  6
CONTINUOUS
 62
3
 66
1
 40
2.0E-01
 41
2.0E-01
 70
0
  0
VERTEX
  5
d4c
100
AcDbEntity
  8
1
100
AcDbVertex
100
AcDb2dVertex
 42
0.0
 10
2.4600042E+02
 20
8.5176619E+01
 70
0
  0
VERTEX
  5
d4d
100
AcDbEntity
  8
1
100
AcDbVertex
100
AcDb2dVertex
 42
0.0
 10
2.4600042E+02
 20
1.011758E+02
 70
0
  0
SEQEND
  5
d4e
100
AcDbEntity
  0
POLYLINE
  5
d4f
100
AcDbEntity
  8
1
100
AcDb2dPolyline
  6
CONTINUOUS
 62
3
 66
1
 40
2.0E-01
 41
2.0E-01
 70
0
  0
VERTEX
  5
d50
100
AcDbEntity
  8
1
100
AcDbVertex
100
AcDb2dVertex
 42
0.0
 10
2.5799981E+02
 20
8.5176619E+01
 70
0
  0
VERTEX
  5
d51
100
AcDbEntity
  8
1
100
AcDbVertex
100
AcDb2dVertex
 42
0.0
 10
2.5799981E+02
 20
1.011758E+02
 70
0
  0
SEQEND
  5
d52
100
AcDbEntity
  0
POLYLINE
  5
d53
100
AcDbEntity
  8
1
100
AcDb2dPolyline
  6
CONTINUOUS
 62
3
 66
1
 40
2.0E-01
 41
2.0E-01
 70
0
  0
VERTEX
  5
d54
100
AcDbEntity
  8
1
100
AcDbVertex
100
AcDb2dVertex
 42
0.0
 10
3.1300037E+02
 20
8.5176619E+01
 70
0
  0
VERTEX
  5
d55
100
AcDbEntity
  8
1
100
AcDbVertex
100
AcDb2dVertex
 42
0.0
 10
3.1300037E+02
 20
1.011758E+02
 70
0
  0
SEQEND
  5
d56
100
AcDbEntity
  0
POLYLINE
  5
d57
100
AcDbEntity
  8
1
100
AcDb2dPolyline
  6
CONTINUOUS
 62
3
 66
1
 40
2.0E-01
 41
2.0E-01
 70
0
  0
VERTEX
  5
d58
100
AcDbEntity
  8
1
100
AcDbVertex
100
AcDb2dVertex
 42
0.0
 10
3.7900036E+02
 20
8.5176619E+01
 70
0
  0
VERTEX
  5
d59
100
AcDbEntity
  8
1
100
AcDbVertex
100
AcDb2dVertex
 42
0.0
 10
3.7900036E+02
 20
9.3176211E+01
 70
0
  0
SEQEND
  5
d5a
100
AcDbEntity
  0
POLYLINE
  5
d5b
100
AcDbEntity
  8
1
100
AcDb2dPolyline
  6
CONTINUOUS
 62
2
 66
1
 40
2.0E-01
 41
2.0E-01
 70
0
  0
VERTEX
  5
d5c
100
AcDbEntity
  8
1
100
AcDbVertex
100
AcDb2dVertex
 42
0.0
 10
2.4515286E+02
 20
3.3039735E+01
 70
0
  0
VERTEX
  5
d5d
100
AcDbEntity
  8
1
100
AcDbVertex
100
AcDb2dVertex
 42
0.0
 10
2.4634203E+02
 20
3.3039735E+01
 70
0
  0
SEQEND
  5
d5e
100
AcDbEntity
  0
POLYLINE
  5
d5f
100
AcDbEntity
  8
1
100
AcDb2dPolyline
  6
CONTINUOUS
 62
2
 66
1
 40
2.0E-01
 41
2.0E-01
 70
0
  0
VERTEX
  5
d60
100
AcDbEntity
  8
1
100
AcDbVertex
100
AcDb2dVertex
 42
0.0
 10
2.4965305E+02
 20
3.3039735E+01
 70
0
  0
VERTEX
  5
d61
100
AcDbEntity
  8
1
100
AcDbVertex
100
AcDb2dVertex
 42
0.0
 10
2.50653E+02
 20
3.3039735E+01
 70
0
  0
SEQEND
  5
d62
100
AcDbEntity
  0
POLYLINE
  5
d63
100
AcDbEntity
  8
1
100
AcDb2dPolyline
  6
CONTINUOUS
 62
2
 66
1
 40
2.0E-01
 41
2.0E-01
 70
0
  0
VERTEX
  5
d64
100
AcDbEntity
  8
1
100
AcDbVertex
100
AcDb2dVertex
 42
0.0
 10
2.5415324E+02
 20
3.3039735E+01
 70
0
  0
VERTEX
  5
d65
100
AcDbEntity
  8
1
100
AcDbVertex
100
AcDb2dVertex
 42
0.0
 10
2.5515319E+02
 20
3.3039735E+01
 70
0
  0
SEQEND
  5
d66
100
AcDbEntity
  0
POLYLINE
  5
d67
100
AcDbEntity
  8
1
100
AcDb2dPolyline
  6
CONTINUOUS
 62
2
 66
1
 40
2.0E-01
 41
2.0E-01
 70
0
  0
VERTEX
  5
d68
100
AcDbEntity
  8
1
100
AcDbVertex
100
AcDb2dVertex
 42
0.0
 10
2.6532172E+02
 20
3.3474532E+01
 70
0
  0
VERTEX
  5
d69
100
AcDbEntity
  8
1
100
AcDbVertex
100
AcDb2dVertex
 42
0.0
 10
2.6700288E+02
 20
3.3474532E+01
 70
0
  0
SEQEND
  5
d6a
100
AcDbEntity
  0
POLYLINE
  5
d6b
100
AcDbEntity
  8
1
100
AcDb2dPolyline
  6
CONTINUOUS
 62
2
 66
1
 40
2.0E-01
 41
2.0E-01
 70
0
  0
VERTEX
  5
d6c
100
AcDbEntity
  8
1
100
AcDbVertex
100
AcDb2dVertex
 42
0.0
 10
2.6980425E+02
 20
3.3474532E+01
 70
0
  0
VERTEX
  5
d6d
100
AcDbEntity
  8
1
100
AcDbVertex
100
AcDb2dVertex
 42
0.0
 10
2.7148457E+02
 20
3.3474532E+01
 70
0
  0
SEQEND
  5
d6e
100
AcDbEntity
  0
POLYLINE
  5
d6f
100
AcDbEntity
  8
1
100
AcDb2dPolyline
  6
CONTINUOUS
 62
2
 66
1
 40
2.0E-01
 41
2.0E-01
 70
0
  0
VERTEX
  5
d70
100
AcDbEntity
  8
1
100
AcDbVertex
100
AcDb2dVertex
 42
0.0
 10
2.7315311E+02
 20
3.3039735E+01
 70
0
  0
VERTEX
  5
d71
100
AcDbEntity
  8
1
100
AcDbVertex
100
AcDb2dVertex
 42
0.0
 10
2.776533E+02
 20
3.3039735E+01
 70
0
  0
SEQEND
  5
d72
100
AcDbEntity
  0
POLYLINE
  5
d73
100
AcDbEntity
  8
1
100
AcDb2dPolyline
  6
CONTINUOUS
 62
2
 66
1
 40
2.0E-01
 41
2.0E-01
 70
0
  0
VERTEX
  5
d74
100
AcDbEntity
  8
1
100
AcDbVertex
100
AcDb2dVertex
 42
0.0
 10
2.8015359E+02
 20
3.3039735E+01
 70
0
  0
VERTEX
  5
d75
100
AcDbEntity
  8
1
100
AcDbVertex
100
AcDb2dVertex
 42
0.0
 10
2.8465294E+02
 20
3.3039735E+01
 70
0
  0
SEQEND
  5
d76
100
AcDbEntity
  0
POLYLINE
  5
d77
100
AcDbEntity
  8
1
100
AcDb2dPolyline
  6
CONTINUOUS
 62
2
 66
1
 40
2.0E-01
 41
2.0E-01
 70
0
  0
VERTEX
  5
d78
100
AcDbEntity
  8
1
100
AcDbVertex
100
AcDb2dVertex
 42
0.0
 10
2.8465294E+02
 20
3.2039786E+01
 70
0
  0
VERTEX
  5
d79
100
AcDbEntity
  8
1
100
AcDbVertex
100
AcDb2dVertex
 42
0.0
 10
2.8115354E+02
 20
3.2039786E+01
 70
0
  0
SEQEND
  5
d7a
100
AcDbEntity
  0
POLYLINE
  5
d7b
100
AcDbEntity
  8
1
100
AcDb2dPolyline
  6
CONTINUOUS
 62
2
 66
1
 40
2.0E-01
 41
2.0E-01
 70
0
  0
VERTEX
  5
d7c
100
AcDbEntity
  8
1
100
AcDbVertex
100
AcDb2dVertex
 42
0.0
 10
2.8115354E+02
 20
3.0039888E+01
 70
0
  0
VERTEX
  5
d7d
100
AcDbEntity
  8
1
100
AcDbVertex
100
AcDb2dVertex
 42
0.0
 10
2.8265305E+02
 20
3.0039888E+01
 70
0
  0
SEQEND
  5
d7e
100
AcDbEntity
  0
POLYLINE
  5
d7f
100
AcDbEntity
  8
1
100
AcDb2dPolyline
  6
CONTINUOUS
 62
2
 66
1
 40
2.0E-01
 41
2.0E-01
 70
0
  0
VERTEX
  5
d80
100
AcDbEntity
  8
1
100
AcDbVertex
100
AcDb2dVertex
 42
0.0
 10
2.8265305E+02
 20
2.9039939E+01
 70
0
  0
VERTEX
  5
d81
100
AcDbEntity
  8
1
100
AcDbVertex
100
AcDb2dVertex
 42
0.0
 10
2.8115354E+02
 20
2.9039939E+01
 70
0
  0
SEQEND
  5
d82
100
AcDbEntity
  0
POLYLINE
  5
d83
100
AcDbEntity
  8
1
100
AcDb2dPolyline
  6
CONTINUOUS
 62
2
 66
1
 40
2.0E-01
 41
2.0E-01
 70
0
  0
VERTEX
  5
d84
100
AcDbEntity
  8
1
100
AcDbVertex
100
AcDb2dVertex
 42
0.0
 10
2.8115354E+02
 20
2.6039251E+01
 70
0
  0
VERTEX
  5
d85
100
AcDbEntity
  8
1
100
AcDbVertex
100
AcDb2dVertex
 42
0.0
 10
2.8015359E+02
 20
2.6039251E+01
 70
0
  0
SEQEND
  5
d86
100
AcDbEntity
  0
POLYLINE
  5
d87
100
AcDbEntity
  8
1
100
AcDb2dPolyline
  6
CONTINUOUS
 62
2
 66
1
 40
2.0E-01
 41
2.0E-01
 70
0
  0
VERTEX
  5
d88
100
AcDbEntity
  8
1
100
AcDbVertex
100
AcDb2dVertex
 42
0.0
 10
2.7415306E+02
 20
3.0039888E+01
 70
0
  0
VERTEX
  5
d89
100
AcDbEntity
  8
1
100
AcDbVertex
100
AcDb2dVertex
 42
0.0
 10
2.7415306E+02
 20
3.2039786E+01
 70
0
  0
SEQEND
  5
d8a
100
AcDbEntity
  0
POLYLINE
  5
d8b
100
AcDbEntity
  8
1
100
AcDb2dPolyline
  6
CONTINUOUS
 62
2
 66
1
 40
2.0E-01
 41
2.0E-01
 70
0
  0
VERTEX
  5
d8c
100
AcDbEntity
  8
1
100
AcDbVertex
100
AcDb2dVertex
 42
0.0
 10
2.776533E+02
 20
3.2039786E+01
 70
0
  0
VERTEX
  5
d8d
100
AcDbEntity
  8
1
100
AcDbVertex
100
AcDb2dVertex
 42
0.0
 10
2.7415306E+02
 20
3.2039786E+01
 70
0
  0
SEQEND
  5
d8e
100
AcDbEntity
  0
POLYLINE
  5
d8f
100
AcDbEntity
  8
1
100
AcDb2dPolyline
  6
CONTINUOUS
 62
2
 66
1
 40
2.0E-01
 41
2.0E-01
 70
0
  0
VERTEX
  5
d90
100
AcDbEntity
  8
1
100
AcDbVertex
100
AcDb2dVertex
 42
0.0
 10
2.7415306E+02
 20
3.0039888E+01
 70
0
  0
VERTEX
  5
d91
100
AcDbEntity
  8
1
100
AcDbVertex
100
AcDb2dVertex
 42
0.0
 10
2.756534E+02
 20
3.0039888E+01
 70
0
  0
SEQEND
  5
d92
100
AcDbEntity
  0
POLYLINE
  5
d93
100
AcDbEntity
  8
1
100
AcDb2dPolyline
  6
CONTINUOUS
 62
2
 66
1
 40
2.0E-01
 41
2.0E-01
 70
0
  0
VERTEX
  5
d94
100
AcDbEntity
  8
1
100
AcDbVertex
100
AcDb2dVertex
 42
0.0
 10
2.776533E+02
 20
2.70392E+01
 70
0
  0
VERTEX
  5
d95
100
AcDbEntity
  8
1
100
AcDbVertex
100
AcDb2dVertex
 42
0.0
 10
2.7415306E+02
 20
2.70392E+01
 70
0
  0
SEQEND
  5
d96
100
AcDbEntity
  0
POLYLINE
  5
d97
100
AcDbEntity
  8
1
100
AcDb2dPolyline
  6
CONTINUOUS
 62
2
 66
1
 40
2.0E-01
 41
2.0E-01
 70
0
  0
VERTEX
  5
d98
100
AcDbEntity
  8
1
100
AcDbVertex
100
AcDb2dVertex
 42
0.0
 10
2.7415306E+02
 20
2.9039098E+01
 70
0
  0
VERTEX
  5
d99
100
AcDbEntity
  8
1
100
AcDbVertex
100
AcDb2dVertex
 42
0.0
 10
2.7415306E+02
 20
2.70392E+01
 70
0
  0
SEQEND
  5
d9a
100
AcDbEntity
  0
POLYLINE
  5
d9b
100
AcDbEntity
  8
1
100
AcDb2dPolyline
  6
CONTINUOUS
 62
2
 66
1
 40
2.0E-01
 41
2.0E-01
 70
0
  0
VERTEX
  5
d9c
100
AcDbEntity
  8
1
100
AcDbVertex
100
AcDb2dVertex
 42
0.0
 10
2.7415306E+02
 20
2.9039098E+01
 70
0
  0
VERTEX
  5
d9d
100
AcDbEntity
  8
1
100
AcDbVertex
100
AcDb2dVertex
 42
0.0
 10
2.756534E+02
 20
2.9039098E+01
 70
0
  0
SEQEND
  5
d9e
100
AcDbEntity
  0
POLYLINE
  5
d9f
100
AcDbEntity
  8
1
100
AcDb2dPolyline
  6
CONTINUOUS
 62
2
 66
1
 40
2.0E-01
 41
2.0E-01
 70
0
  0
VERTEX
  5
da0
100
AcDbEntity
  8
1
100
AcDbVertex
100
AcDb2dVertex
 42
0.0
 10
2.7315311E+02
 20
2.6039251E+01
 70
0
  0
VERTEX
  5
da1
100
AcDbEntity
  8
1
100
AcDbVertex
100
AcDb2dVertex
 42
0.0
 10
2.776533E+02
 20
2.6039251E+01
 70
0
  0
SEQEND
  5
da2
100
AcDbEntity
  0
POLYLINE
  5
da3
100
AcDbEntity
  8
1
100
AcDb2dPolyline
  6
CONTINUOUS
 62
2
 66
1
 40
2.0E-01
 41
2.0E-01
 70
0
  0
VERTEX
  5
da4
100
AcDbEntity
  8
1
100
AcDbVertex
100
AcDb2dVertex
 42
0.0
 10
2.776533E+02
 20
2.6039251E+01
 70
0
  0
VERTEX
  5
da5
100
AcDbEntity
  8
1
100
AcDbVertex
100
AcDb2dVertex
 42
0.0
 10
2.776533E+02
 20
2.70392E+01
 70
0
  0
SEQEND
  5
da6
100
AcDbEntity
  0
POLYLINE
  5
da7
100
AcDbEntity
  8
1
100
AcDb2dPolyline
  6
CONTINUOUS
 62
2
 66
1
 40
2.0E-01
 41
2.0E-01
 70
0
  0
VERTEX
  5
da8
100
AcDbEntity
  8
1
100
AcDbVertex
100
AcDb2dVertex
 42
0.0
 10
2.6980425E+02
 20
3.0378811E+01
 70
0
  0
VERTEX
  5
da9
100
AcDbEntity
  8
1
100
AcDbVertex
100
AcDb2dVertex
 42
0.0
 10
2.6700288E+02
 20
3.0378811E+01
 70
0
  0
SEQEND
  5
daa
100
AcDbEntity
  0
POLYLINE
  5
dab
100
AcDbEntity
  8
1
100
AcDb2dPolyline
  6
CONTINUOUS
 62
2
 66
1
 40
2.0E-01
 41
2.0E-01
 70
0
  0
VERTEX
  5
dac
100
AcDbEntity
  8
1
100
AcDbVertex
100
AcDb2dVertex
 42
0.0
 10
2.6700288E+02
 20
2.8699334E+01
 70
0
  0
VERTEX
  5
dad
100
AcDbEntity
  8
1
100
AcDbVertex
100
AcDb2dVertex
 42
0.0
 10
2.6980425E+02
 20
2.8699334E+01
 70
0
  0
SEQEND
  5
dae
100
AcDbEntity
  0
POLYLINE
  5
daf
100
AcDbEntity
  8
1
100
AcDb2dPolyline
  6
CONTINUOUS
 62
2
 66
1
 40
2.0E-01
 41
2.0E-01
 70
0
  0
VERTEX
  5
db0
100
AcDbEntity
  8
1
100
AcDbVertex
100
AcDb2dVertex
 42
0.0
 10
2.6980425E+02
 20
2.5604454E+01
 70
0
  0
VERTEX
  5
db1
100
AcDbEntity
  8
1
100
AcDbVertex
100
AcDb2dVertex
 42
0.0
 10
2.7148457E+02
 20
2.5604454E+01
 70
0
  0
SEQEND
  5
db2
100
AcDbEntity
  0
POLYLINE
  5
db3
100
AcDbEntity
  8
1
100
AcDb2dPolyline
  6
CONTINUOUS
 62
2
 66
1
 40
2.0E-01
 41
2.0E-01
 70
0
  0
VERTEX
  5
db4
100
AcDbEntity
  8
1
100
AcDbVertex
100
AcDb2dVertex
 42
0.0
 10
2.6700288E+02
 20
2.5604454E+01
 70
0
  0
VERTEX
  5
db5
100
AcDbEntity
  8
1
100
AcDbVertex
100
AcDb2dVertex
 42
0.0
 10
2.6532172E+02
 20
2.5604454E+01
 70
0
  0
SEQEND
  5
db6
100
AcDbEntity
  0
POLYLINE
  5
db7
100
AcDbEntity
  8
1
100
AcDb2dPolyline
  6
CONTINUOUS
 62
2
 66
1
 40
2.0E-01
 41
2.0E-01
 70
0
  0
VERTEX
  5
db8
100
AcDbEntity
  8
1
100
AcDbVertex
100
AcDb2dVertex
 42
0.0
 10
2.5515319E+02
 20
2.6039251E+01
 70
0
  0
VERTEX
  5
db9
100
AcDbEntity
  8
1
100
AcDbVertex
100
AcDb2dVertex
 42
0.0
 10
2.5415324E+02
 20
2.6039251E+01
 70
0
  0
SEQEND
  5
dba
100
AcDbEntity
  0
POLYLINE
  5
dbb
100
AcDbEntity
  8
1
100
AcDb2dPolyline
  6
CONTINUOUS
 62
2
 66
1
 40
2.0E-01
 41
2.0E-01
 70
0
  0
VERTEX
  5
dbc
100
AcDbEntity
  8
1
100
AcDbVertex
100
AcDb2dVertex
 42
0.0
 10
2.50653E+02
 20
2.6039251E+01
 70
0
  0
VERTEX
  5
dbd
100
AcDbEntity
  8
1
100
AcDbVertex
100
AcDb2dVertex
 42
0.0
 10
2.4965305E+02
 20
2.6039251E+01
 70
0
  0
SEQEND
  5
dbe
100
AcDbEntity
  0
POLYLINE
  5
dbf
100
AcDbEntity
  8
1
100
AcDb2dPolyline
  6
CONTINUOUS
 62
2
 66
1
 40
2.0E-01
 41
2.0E-01
 70
0
  0
VERTEX
  5
dc0
100
AcDbEntity
  8
1
100
AcDbVertex
100
AcDb2dVertex
 42
0.0
 10
2.461528E+02
 20
2.6039251E+01
 70
0
  0
VERTEX
  5
dc1
100
AcDbEntity
  8
1
100
AcDbVertex
100
AcDb2dVertex
 42
0.0
 10
2.4515286E+02
 20
2.6039251E+01
 70
0
  0
SEQEND
  5
dc2
100
AcDbEntity
  0
POLYLINE
  5
dc3
100
AcDbEntity
  8
1
100
AcDb2dPolyline
  6
CONTINUOUS
 62
2
 66
1
 40
2.0E-01
 41
2.0E-01
 70
0
  0
VERTEX
  5
dc4
100
AcDbEntity
  8
1
100
AcDbVertex
100
AcDb2dVertex
 42
0.0
 10
2.5956364E+02
 20
3.3474532E+01
 70
0
  0
VERTEX
  5
dc5
100
AcDbEntity
  8
1
100
AcDbVertex
100
AcDb2dVertex
 42
0.0
 10
2.5956364E+02
 20
3.0390078E+01
 70
0
  0
SEQEND
  5
dc6
100
AcDbEntity
  0
POLYLINE
  5
dc7
100
AcDbEntity
  8
1
100
AcDb2dPolyline
  6
CONTINUOUS
 62
2
 66
1
 40
2.0E-01
 41
2.0E-01
 70
0
  0
VERTEX
  5
dc8
100
AcDbEntity
  8
1
100
AcDbVertex
100
AcDb2dVertex
 42
0.0
 10
2.5956364E+02
 20
2.8126097E+01
 70
0
  0
VERTEX
  5
dc9
100
AcDbEntity
  8
1
100
AcDbVertex
100
AcDb2dVertex
 42
0.0
 10
2.5956364E+02
 20
2.5604454E+01
 70
0
  0
SEQEND
  5
dca
100
AcDbEntity
  0
POLYLINE
  5
dcb
100
AcDbEntity
  8
1
100
AcDb2dPolyline
  6
CONTINUOUS
 62
2
 66
1
 40
2.0E-01
 41
2.0E-01
 70
0
  0
VERTEX
  5
dcc
100
AcDbEntity
  8
1
100
AcDbVertex
100
AcDb2dVertex
 42
0.0
 10
2.5788248E+02
 20
2.5604454E+01
 70
0
  0
VERTEX
  5
dcd
100
AcDbEntity
  8
1
100
AcDbVertex
100
AcDb2dVertex
 42
0.0
 10
2.5788248E+02
 20
3.3474532E+01
 70
0
  0
SEQEND
  5
dce
100
AcDbEntity
  0
POLYLINE
  5
dcf
100
AcDbEntity
  8
1
100
AcDb2dPolyline
  6
CONTINUOUS
 62
2
 66
1
 40
2.0E-01
 41
2.0E-01
 70
0
  0
VERTEX
  5
dd0
100
AcDbEntity
  8
1
100
AcDbVertex
100
AcDb2dVertex
 42
0.0
 10
2.5788248E+02
 20
3.3474532E+01
 70
0
  0
VERTEX
  5
dd1
100
AcDbEntity
  8
1
100
AcDbVertex
100
AcDb2dVertex
 42
0.0
 10
2.5956364E+02
 20
3.3474532E+01
 70
0
  0
SEQEND
  5
dd2
100
AcDbEntity
  0
POLYLINE
  5
dd3
100
AcDbEntity
  8
1
100
AcDb2dPolyline
  6
CONTINUOUS
 62
2
 66
1
 40
2.0E-01
 41
2.0E-01
 70
0
  0
VERTEX
  5
dd4
100
AcDbEntity
  8
1
100
AcDbVertex
100
AcDb2dVertex
 42
0.0
 10
2.5956364E+02
 20
2.5604454E+01
 70
0
  0
VERTEX
  5
dd5
100
AcDbEntity
  8
1
100
AcDbVertex
100
AcDb2dVertex
 42
0.0
 10
2.5788248E+02
 20
2.5604454E+01
 70
0
  0
SEQEND
  5
dd6
100
AcDbEntity
  0
POLYLINE
  5
dd7
100
AcDbEntity
  8
1
100
AcDb2dPolyline
  6
CONTINUOUS
 62
2
 66
1
 40
2.0E-01
 41
2.0E-01
 70
0
  0
VERTEX
  5
dd8
100
AcDbEntity
  8
1
100
AcDbVertex
100
AcDb2dVertex
 42
0.0
 10
2.6229202E+02
 20
3.3474532E+01
 70
0
  0
VERTEX
  5
dd9
100
AcDbEntity
  8
1
100
AcDbVertex
100
AcDb2dVertex
 42
0.0
 10
2.6429464E+02
 20
3.3474532E+01
 70
0
  0
SEQEND
  5
dda
100
AcDbEntity
  0
POLYLINE
  5
ddb
100
AcDbEntity
  8
1
100
AcDb2dPolyline
  6
CONTINUOUS
 62
2
 66
1
 40
2.0E-01
 41
2.0E-01
 70
0
  0
VERTEX
  5
ddc
100
AcDbEntity
  8
1
100
AcDbVertex
100
AcDb2dVertex
 42
0.0
 10
2.6229202E+02
 20
3.3474532E+01
 70
0
  0
VERTEX
  5
ddd
100
AcDbEntity
  8
1
100
AcDbVertex
100
AcDb2dVertex
 42
0.0
 10
2.5956364E+02
 20
3.0390078E+01
 70
0
  0
SEQEND
  5
dde
100
AcDbEntity
  0
POLYLINE
  5
ddf
100
AcDbEntity
  8
1
100
AcDb2dPolyline
  6
CONTINUOUS
 62
2
 66
1
 40
2.0E-01
 41
2.0E-01
 70
0
  0
VERTEX
  5
de0
100
AcDbEntity
  8
1
100
AcDbVertex
100
AcDb2dVertex
 42
0.0
 10
2.6429464E+02
 20
3.3474532E+01
 70
0
  0
VERTEX
  5
de1
100
AcDbEntity
  8
1
100
AcDbVertex
100
AcDb2dVertex
 42
0.0
 10
2.6113338E+02
 20
2.9900701E+01
 70
0
  0
SEQEND
  5
de2
100
AcDbEntity
  0
POLYLINE
  5
de3
100
AcDbEntity
  8
1
100
AcDb2dPolyline
  6
CONTINUOUS
 62
2
 66
1
 40
2.0E-01
 41
2.0E-01
 70
0
  0
VERTEX
  5
de4
100
AcDbEntity
  8
1
100
AcDbVertex
100
AcDb2dVertex
 42
0.0
 10
2.6011675E+02
 20
2.8751391E+01
 70
0
  0
VERTEX
  5
de5
100
AcDbEntity
  8
1
100
AcDbVertex
100
AcDb2dVertex
 42
0.0
 10
2.5956364E+02
 20
2.8126097E+01
 70
0
  0
SEQEND
  5
de6
100
AcDbEntity
  0
POLYLINE
  5
de7
100
AcDbEntity
  8
1
100
AcDb2dPolyline
  6
CONTINUOUS
 62
2
 66
1
 40
2.0E-01
 41
2.0E-01
 70
0
  0
VERTEX
  5
de8
100
AcDbEntity
  8
1
100
AcDbVertex
100
AcDb2dVertex
 42
0.0
 10
2.6243233E+02
 20
2.5604454E+01
 70
0
  0
VERTEX
  5
de9
100
AcDbEntity
  8
1
100
AcDbVertex
100
AcDb2dVertex
 42
0.0
 10
2.6429464E+02
 20
2.5604454E+01
 70
0
  0
SEQEND
  5
dea
100
AcDbEntity
  0
POLYLINE
  5
deb
100
AcDbEntity
  8
1
100
AcDb2dPolyline
  6
CONTINUOUS
 62
2
 66
1
 40
2.0E-01
 41
2.0E-01
 70
0
  0
VERTEX
  5
dec
100
AcDbEntity
  8
1
100
AcDbVertex
100
AcDb2dVertex
 42
0.0
 10
2.6429464E+02
 20
2.5604454E+01
 70
0
  0
VERTEX
  5
ded
100
AcDbEntity
  8
1
100
AcDbVertex
100
AcDb2dVertex
 42
0.0
 10
2.6113338E+02
 20
2.9900701E+01
 70
0
  0
SEQEND
  5
dee
100
AcDbEntity
  0
POLYLINE
  5
def
100
AcDbEntity
  8
1
100
AcDb2dPolyline
  6
CONTINUOUS
 62
2
 66
1
 40
2.0E-01
 41
2.0E-01
 70
0
  0
VERTEX
  5
df0
100
AcDbEntity
  8
1
100
AcDbVertex
100
AcDb2dVertex
 42
0.0
 10
2.6243233E+02
 20
2.5604454E+01
 70
0
  0
VERTEX
  5
df1
100
AcDbEntity
  8
1
100
AcDbVertex
100
AcDb2dVertex
 42
0.0
 10
2.6011675E+02
 20
2.8751391E+01
 70
0
  0
SEQEND
  5
df2
100
AcDbEntity
  0
INSERT
  5
df3
100
AcDbEntity
100
AcDbBlockReference
  2
*D819
  8
2
 62
6
 10
0.0
 20
0.0
  0
INSERT
  5
df4
100
AcDbEntity
100
AcDbBlockReference
  2
*TX60
  8
2
 10
1.407959E+04
 20
5.9480551E+03
  0
POLYLINE
  5
df5
100
AcDbEntity
  8
2
100
AcDb2dPolyline
  6
CONTINUOUS
 62
6
 66
1
 40
2.0E-01
 41
2.0E-01
 70
0
  0
VERTEX
  5
df6
100
AcDbEntity
  8
2
100
AcDbVertex
100
AcDb2dVertex
 42
0.0
 10
1.4022415E+04
 20
5.8582084E+03
 70
0
  0
VERTEX
  5
df7
100
AcDbEntity
  8
2
100
AcDbVertex
100
AcDb2dVertex
 42
0.0
 10
1.4907269E+04
 20
5.8582084E+03
 70
0
  0
SEQEND
  5
df8
100
AcDbEntity
  0
POLYLINE
  5
df9
100
AcDbEntity
  8
2
100
AcDb2dPolyline
  6
CONTINUOUS
 62
6
 66
1
 40
2.0E-01
 41
2.0E-01
 70
0
  0
VERTEX
  5
dfa
100
AcDbEntity
  8
2
100
AcDbVertex
100
AcDb2dVertex
 42
0.0
 10
1.4907269E+04
 20
5.8582084E+03
 70
0
  0
VERTEX
  5
dfb
100
AcDbEntity
  8
2
100
AcDbVertex
100
AcDb2dVertex
 42
0.0
 10
1.4907269E+04
 20
6.0079529E+03
 70
0
  0
SEQEND
  5
dfc
100
AcDbEntity
  0
POLYLINE
  5
dfd
100
AcDbEntity
  8
2
100
AcDb2dPolyline
  6
CONTINUOUS
 62
6
 66
1
 40
2.0E-01
 41
2.0E-01
 70
0
  0
VERTEX
  5
dfe
100
AcDbEntity
  8
2
100
AcDbVertex
100
AcDb2dVertex
 42
0.0
 10
1.4907269E+04
 20
6.0079529E+03
 70
0
  0
VERTEX
  5
dff
100
AcDbEntity
  8
2
100
AcDbVertex
100
AcDb2dVertex
 42
0.0
 10
1.4022415E+04
 20
6.0079529E+03
 70
0
  0
SEQEND
  5
e00
100
AcDbEntity
  0
POLYLINE
  5
e01
100
AcDbEntity
  8
2
100
AcDb2dPolyline
  6
CONTINUOUS
 62
6
 66
1
 40
2.0E-01
 41
2.0E-01
 70
0
  0
VERTEX
  5
e02
100
AcDbEntity
  8
2
100
AcDbVertex
100
AcDb2dVertex
 42
0.0
 10
1.4022415E+04
 20
6.0079529E+03
 70
0
  0
VERTEX
  5
e03
100
AcDbEntity
  8
2
100
AcDbVertex
100
AcDb2dVertex
 42
0.0
 10
1.4022415E+04
 20
5.8582084E+03
 70
0
  0
SEQEND
  5
e04
100
AcDbEntity
  0
POLYLINE
  5
e05
100
AcDbEntity
  8
2
100
AcDb2dPolyline
  6
CONTINUOUS
 62
6
 66
1
 40
2.0E-01
 41
2.0E-01
 70
0
  0
VERTEX
  5
e06
100
AcDbEntity
  8
2
100
AcDbVertex
100
AcDb2dVertex
 42
0.0
 10
1.5673726E+04
 20
5.6394297E+03
 70
0
  0
VERTEX
  5
e07
100
AcDbEntity
  8
2
100
AcDbVertex
100
AcDb2dVertex
 42
0.0
 10
1.3564176E+04
 20
5.6394297E+03
 70
0
  0
SEQEND
  5
e08
100
AcDbEntity
  0
POLYLINE
  5
e09
100
AcDbEntity
  8
2
100
AcDb2dPolyline
  6
CONTINUOUS
 62
6
 66
1
 40
2.0E-01
 41
2.0E-01
 70
0
  0
VERTEX
  5
e0a
100
AcDbEntity
  8
2
100
AcDbVertex
100
AcDb2dVertex
 42
0.0
 10
1.3564176E+04
 20
5.4994297E+03
 70
0
  0
VERTEX
  5
e0b
100
AcDbEntity
  8
2
100
AcDbVertex
100
AcDb2dVertex
 42
0.0
 10
1.5673726E+04
 20
5.4994297E+03
 70
0
  0
SEQEND
  5
e0c
100
AcDbEntity
  0
POLYLINE
  5
e0d
100
AcDbEntity
  8
2
100
AcDb2dPolyline
  6
CONTINUOUS
 62
6
 66
1
 40
2.0E-01
 41
2.0E-01
 70
0
  0
VERTEX
  5
e0e
100
AcDbEntity
  8
2
100
AcDbVertex
100
AcDb2dVertex
 42
0.0
 10
1.5614776E+04
 20
5.7052836E+03
 70
0
  0
VERTEX
  5
e0f
100
AcDbEntity
  8
2
100
AcDbVertex
100
AcDb2dVertex
 42
0.0
 10
1.5614776E+04
 20
5.4455182E+03
 70
0
  0
SEQEND
  5
e10
100
AcDbEntity
  0
POLYLINE
  5
e11
100
AcDbEntity
  8
2
100
AcDb2dPolyline
  6
CONTINUOUS
 62
6
 66
1
 40
2.0E-01
 41
2.0E-01
 70
0
  0
VERTEX
  5
e12
100
AcDbEntity
  8
2
100
AcDbVertex
100
AcDb2dVertex
 42
0.0
 10
1.5454776E+04
 20
5.4455182E+03
 70
0
  0
VERTEX
  5
e13
100
AcDbEntity
  8
2
100
AcDbVertex
100
AcDb2dVertex
 42
0.0
 10
1.5454776E+04
 20
5.7052836E+03
 70
0
  0
SEQEND
  5
e14
100
AcDbEntity
  0
POLYLINE
  5
e15
100
AcDbEntity
  8
2
100
AcDb2dPolyline
  6
CONTINUOUS
 62
6
 66
1
 40
2.0E-01
 41
2.0E-01
 70
0
  0
VERTEX
  5
e16
100
AcDbEntity
  8
2
100
AcDbVertex
100
AcDb2dVertex
 42
0.0
 10
1.3594776E+04
 20
5.4455182E+03
 70
0
  0
VERTEX
  5
e17
100
AcDbEntity
  8
2
100
AcDbVertex
100
AcDb2dVertex
 42
0.0
 10
1.3594776E+04
 20
5.7052836E+03
 70
0
  0
SEQEND
  5
e18
100
AcDbEntity
  0
DIMENSION
  5
e19
100
AcDbEntity
  8
2
100
AcDbDimension
  6
CONTINUOUS
 62
6
  2
*D833
  3
DSTYLE2
 10
1.3247456E+04
 20
5.4994297E+03
 11
1.3214946E+04
 21
5.4544297E+03
 70
128
100
AcDbAlignedDimension
 13
1.3514776E+04
 23
5.4094297E+03
 14
1.3564176E+04
 24
5.4994297E+03
 40
3.0E+01
 50
9.0E+01
100
AcDbRotatedDimension
1001
ACAD
1000
DSTYLE
1002
{
1070
173
1070
0
1070
5
1000
_AH13
1002
}
  0
DIMENSION
  5
e1a
100
AcDbEntity
  8
2
100
AcDbDimension
  6
CONTINUOUS
 62
6
  2
*D834
  3
DSTYLE3
 10
1.3247456E+04
 20
5.6394297E+03
 11
1.3214946E+04
 21
5.5694297E+03
 70
128
100
AcDbAlignedDimension
 13
1.3564176E+04
 23
5.4994297E+03
 14
1.3564176E+04
 24
5.6394297E+03
 40
3.0E+01
 50
9.0E+01
100
AcDbRotatedDimension
1001
ACAD
1000
DSTYLE
1002
{
1070
173
1070
0
1070
5
1000
_AH13
1002
}
  0
DIMENSION
  5
e1b
100
AcDbEntity
  8
2
100
AcDbDimension
  6
CONTINUOUS
 62
6
  2
*D835
  3
DSTYLE3
 10
1.3142573E+04
 20
5.6744297E+03
 11
1.3110063E+04
 21
5.5419297E+03
 70
128
100
AcDbAlignedDimension
 13
1.3514776E+04
 23
5.4094297E+03
 14
1.3514776E+04
 24
5.6744297E+03
 40
3.0E+01
 50
9.0E+01
100
AcDbRotatedDimension
1001
ACAD
1000
DSTYLE
1002
{
1070
173
1070
0
1070
5
1000
_AH13
1002
}
  0
DIMENSION
  5
e1c
100
AcDbEntity
  8
2
100
AcDbDimension
  6
CONTINUOUS
 62
6
  1
<>-THRU (6x)
  2
*D836
  3
DSTYLE4
 10
1.3592515E+04
 20
5.6352522E+03
 11
1.4105087E+04
 21
6.0754078E+03
 70
3
100
AcDbDiametricDimension
 15
1.3597037E+04
 25
5.6436073E+03
 40
4.0E+01
1001
ACAD
1000
DSTYLE
1002
{
1070
173
1070
0
1070
5
1000
_AH13
1002
}
  0
DIMENSION
  5
e1d
100
AcDbEntity
  8
2
100
AcDbDimension
  6
CONTINUOUS
 62
6
  2
*D837
  3
DSTYLE2
 10
1.3594776E+04
 20
5.1685525E+03
 11
1.3423671E+04
 21
5.2010625E+03
 70
128
100
AcDbAlignedDimension
 13
1.3514776E+04
 23
5.4094297E+03
 14
1.3594776E+04
 24
5.4994297E+03
 40
3.0E+01
 50
0.0
100
AcDbRotatedDimension
1001
ACAD
1000
DSTYLE
1002
{
1070
173
1070
0
1070
5
1000
_AH13
1002
}
  0
DIMENSION
  5
e1e
100
AcDbEntity
  8
2
100
AcDbDimension
  6
CONTINUOUS
 62
6
  2
*D838
  3
DSTYLE5
 10
1.5454776E+04
 20
5.1685525E+03
 11
1.4524776E+04
 21
5.2010625E+03
 70
129
100
AcDbAlignedDimension
 13
1.3594776E+04
 23
5.4994297E+03
 14
1.5454776E+04
 24
5.4994297E+03
 40
3.0E+01
1001
ACAD
1000
DSTYLE
1002
{
1070
173
1070
0
1070
5
1000
_AH13
1002
}
  0
DIMENSION
  5
e1f
100
AcDbEntity
  8
2
100
AcDbDimension
  6
CONTINUOUS
 62
6
  2
*D839
  3
DSTYLE6
 10
1.5614776E+04
 20
5.1685525E+03
 11
1.5534776E+04
 21
5.2010625E+03
 70
129
100
AcDbAlignedDimension
 13
1.5454776E+04
 23
5.4994297E+03
 14
1.5614776E+04
 24
5.4994297E+03
 40
3.0E+01
1001
ACAD
1000
DSTYLE
1002
{
1070
173
1070
0
1070
5
1000
_AH13
1002
}
  0
DIMENSION
  5
e20
100
AcDbEntity
  8
2
100
AcDbDimension
  6
CONTINUOUS
 62
6
  2
*D840
  3
DSTYLE3
 10
1.5764776E+04
 20
5.0376175E+03
 11
1.4639776E+04
 21
5.0701275E+03
 70
129
100
AcDbAlignedDimension
 13
1.3514776E+04
 23
5.4094297E+03
 14
1.5764776E+04
 24
5.4094297E+03
 40
3.0E+01
1001
ACAD
1000
DSTYLE
1002
{
1070
173
1070
0
1070
5
1000
_AH13
1002
}
  0
DIMENSION
  5
e21
100
AcDbEntity
  8
3
100
AcDbDimension
  6
CONTINUOUS
 62
6
  2
*D841
  3
DSTYLE3
 10
2.2864337E+03
 20
5.17074E+03
 11
2.38402E+03
 21
5.20325E+03
 70
128
100
AcDbAlignedDimension
 13
2.2764337E+03
 23
5.4094297E+03
 14
2.2864337E+03
 24
5.4094297E+03
 40
3.0E+01
 50
0.0
100
AcDbRotatedDimension
1001
ACAD
1000
DSTYLE
1002
{
1070
173
1070
0
1070
5
1000
_AH13
1002
}
  0
TEXT
  5
e22
100
AcDbEntity
  8
1
100
AcDbText
  6
CONTINUOUS
 62
1
 10
2.3726075E+02
 20
9.5948988E+01
 40
2.500293
  1
02
100
AcDbText
  0
TEXT
  5
e23
100
AcDbEntity
  8
1
100
AcDbText
  6
CONTINUOUS
 62
1
 10
2.4925929E+02
 20
9.5948988E+01
 40
2.500293
  1
06
100
AcDbText
  0
TEXT
  5
e24
100
AcDbEntity
  8
1
100
AcDbText
  6
CONTINUOUS
 62
1
 10
2.61257E+02
 20
9.5948988E+01
 40
2.500293
  1
Zelftappend insert
100
AcDbText
  0
TEXT
  5
e25
100
AcDbEntity
  8
1
100
AcDbText
  6
CONTINUOUS
 62
1
 10
3.4926344E+02
 20
9.5948988E+01
 40
2.500293
  1
ENSAT 307 0 060 16 - KERB-KONUS
 41
7.5E-01
100
AcDbText
  0
POLYLINE
  5
e26
100
AcDbEntity
  8
1
100
AcDb2dPolyline
  6
CONTINUOUS
 62
3
 66
1
 40
2.0E-01
 41
2.0E-01
 70
0
  0
VERTEX
  5
e27
100
AcDbEntity
  8
1
100
AcDbVertex
100
AcDb2dVertex
 42
0.0
 10
2.3400019E+02
 20
1.011758E+02
 70
0
  0
VERTEX
  5
e28
100
AcDbEntity
  8
1
100
AcDbVertex
100
AcDb2dVertex
 42
0.0
 10
4.1400026E+02
 20
1.011758E+02
 70
0
  0
SEQEND
  5
e29
100
AcDbEntity
  0
POLYLINE
  5
e2a
100
AcDbEntity
  8
1
100
AcDb2dPolyline
  6
CONTINUOUS
 62
3
 66
1
 40
2.0E-01
 41
2.0E-01
 70
0
  0
VERTEX
  5
e2b
100
AcDbEntity
  8
1
100
AcDbVertex
100
AcDb2dVertex
 42
0.0
 10
3.4600036E+02
 20
9.3176211E+01
 70
0
  0
VERTEX
  5
e2c
100
AcDbEntity
  8
1
100
AcDbVertex
100
AcDb2dVertex
 42
0.0
 10
3.4600036E+02
 20
1.011758E+02
 70
0
  0
SEQEND
  5
e2d
100
AcDbEntity
  0
POLYLINE
  5
e2e
100
AcDbEntity
  8
1
100
AcDb2dPolyline
  6
CONTINUOUS
 62
230
 66
1
 40
2.0E-01
 41
2.0E-01
 70
0
  0
VERTEX
  5
e2f
100
AcDbEntity
  8
1
100
AcDbVertex
100
AcDb2dVertex
 42
0.0
 10
3.4600036E+02
 20
3.4999748E+01
 70
0
  0
VERTEX
  5
e30
100
AcDbEntity
  8
1
100
AcDbVertex
100
AcDb2dVertex
 42
0.0
 10
2.9600036E+02
 20
3.4999748E+01
 70
0
  0
SEQEND
  5
e31
100
AcDbEntity
  0
TEXT
  5
e32
100
AcDbEntity
  8
1
100
AcDbText
  6
CONTINUOUS
 62
230
 10
2.9895765E+02
 20
3.5963499E+01
 40
2.5
  1
CERN LABEL
100
AcDbText
  0
POLYLINE
  5
e33
100
AcDbEntity
  8
1
100
AcDb2dPolyline
  6
CONTINUOUS
 62
3
 66
1
 40
3.0E-01
 41
3.0E-01
 70
0
  0
VERTEX
  5
e34
100
AcDbEntity
  8
1
100
AcDbVertex
100
AcDb2dVertex
 42
0.0
 10
3.4600036E+02
 20
3.117685E+01
 70
0
  0
VERTEX
  5
e35
100
AcDbEntity
  8
1
100
AcDbVertex
100
AcDb2dVertex
 42
0.0
 10
3.6100044E+02
 20
3.117685E+01
 70
0
  0
SEQEND
  5
e36
100
AcDbEntity
  0
LINE
  5
e37
100
AcDbEntity
  8
1
100
AcDbLine
  6
CONTINUOUS
 62
230
 10
2.9600036E+02
 20
9.9997483
 11
2.9600036E+02
 21
4.0175984E+01
  0
LINE
  5
e38
100
AcDbEntity
  8
1
100
AcDbLine
  6
CONTINUOUS
 62
3
 10
4.1400026E+02
 20
9.9997483
 11
3.4600036E+02
 21
9.9997483
  0
POLYLINE
  5
e39
100
AcDbEntity
  8
1
100
AcDb2dPolyline
  6
CONTINUOUS
 62
3
 66
1
 40
2.0E-01
 41
2.0E-01
 70
0
  0
VERTEX
  5
e3a
100
AcDbEntity
  8
1
100
AcDbVertex
100
AcDb2dVertex
 42
0.0
 10
3.5200006E+02
 20
5.3176569E+01
 70
0
  0
VERTEX
  5
e3b
100
AcDbEntity
  8
1
100
AcDbVertex
100
AcDb2dVertex
 42
0.0
 10
4.1400026E+02
 20
5.3176569E+01
 70
0
  0
SEQEND
  5
e3c
100
AcDbEntity
  0
TEXT
  5
e3d
100
AcDbEntity
  8
1
100
AcDbText
  6
CONTINUOUS
 62
1
 10
3.537485E+02
 20
5.4925849E+01
 40
2.500293
  1
C
100
AcDbText
  0
LINE
  5
e3e
100
AcDbEntity
  8
1
100
AcDbLine
  6
CONTINUOUS
 62
230
 10
2.9600036E+02
 20
4.0175984E+01
 11
3.4600036E+02
 21
4.0175984E+01
  0
POLYLINE
  5
e3f
100
AcDbEntity
  8
1
100
AcDb2dPolyline
  6
CONTINUOUS
 62
3
 66
1
 40
2.0E-01
 41
2.0E-01
 70
0
  0
VERTEX
  5
e40
100
AcDbEntity
  8
1
100
AcDbVertex
100
AcDb2dVertex
 42
0.0
 10
3.4600036E+02
 20
3.9433899E+01
 70
0
  0
VERTEX
  5
e41
100
AcDbEntity
  8
1
100
AcDbVertex
100
AcDb2dVertex
 42
0.0
 10
3.4600036E+02
 20
5.2175372E+01
 70
0
  0
SEQEND
  5
e42
100
AcDbEntity
  0
LINE
  5
e43
100
AcDbEntity
  8
1
100
AcDbLine
  6
CONTINUOUS
 62
230
 10
3.4600036E+02
 20
9.9997483
 11
2.9600036E+02
 21
9.9997483
  0
LINE
  5
e44
100
AcDbEntity
  8
1
100
AcDbLine
  6
CONTINUOUS
 62
3
 10
2.9600036E+02
 20
9.9997483
 11
2.3400019E+02
 21
9.9997483
  0
HATCH
  5
e45
100
AcDbEntity
  8
1
 62
2
100
AcDbHatch
 10
0.0
 20
0.0
 30
0.0
210
0.0
220
0.0
230
1.0
  2
SOLID
 70
1
 71
0
 91
2
 92
1
 93
10
 72
1
 10
2.461528E+02
 20
2.6039251E+01
 11
2.461528E+02
 21
3.1483885E+01
 72
1
 10
2.461528E+02
 20
3.1483885E+01
 11
2.4965305E+02
 21
2.6039251E+01
 72
1
 10
2.4965305E+02
 20
2.6039251E+01
 11
2.50653E+02
 21
2.6039251E+01
 72
1
 10
2.50653E+02
 20
2.6039251E+01
 11
2.50653E+02
 21
3.3039735E+01
 72
1
 10
2.50653E+02
 20
3.3039735E+01
 11
2.4965305E+02
 21
3.3039735E+01
 72
1
 10
2.4965305E+02
 20
3.3039735E+01
 11
2.4965305E+02
 21
2.788861E+01
 72
1
 10
2.4965305E+02
 20
2.788861E+01
 11
2.4634203E+02
 21
3.3039735E+01
 72
1
 10
2.4634203E+02
 20
3.3039735E+01
 11
2.4515286E+02
 21
3.3039735E+01
 72
1
 10
2.4515286E+02
 20
3.3039735E+01
 11
2.4515286E+02
 21
2.6039251E+01
 72
1
 10
2.4515286E+02
 20
2.6039251E+01
 11
2.461528E+02
 21
2.6039251E+01
 97
0
 92
1
 93
4
 72
1
 10
2.5415324E+02
 20
2.6039251E+01
 11
2.5415324E+02
 21
3.3039735E+01
 72
1
 10
2.5415324E+02
 20
3.3039735E+01
 11
2.5515319E+02
 21
3.3039735E+01
 72
1
 10
2.5515319E+02
 20
3.3039735E+01
 11
2.5515319E+02
 21
2.6039251E+01
 72
1
 10
2.5515319E+02
 20
2.6039251E+01
 11
2.5415324E+02
 21
2.6039251E+01
 97
0
 75
0
 76
1
 98
0
  0
HATCH
  5
e46
100
AcDbEntity
  8
1
 62
2
100
AcDbHatch
 10
0.0
 20
0.0
 30
0.0
210
0.0
220
0.0
230
1.0
  2
SOLID
 70
1
 71
0
 91
1
 92
1
 93
10
 72
1
 10
2.8015359E+02
 20
2.6039251E+01
 11
2.8115354E+02
 21
2.6039251E+01
 72
1
 10
2.8115354E+02
 20
2.6039251E+01
 11
2.8115354E+02
 21
2.9039939E+01
 72
1
 10
2.8115354E+02
 20
2.9039939E+01
 11
2.8265305E+02
 21
2.9039939E+01
 72
1
 10
2.8265305E+02
 20
2.9039939E+01
 11
2.8265305E+02
 21
3.0039888E+01
 72
1
 10
2.8265305E+02
 20
3.0039888E+01
 11
2.8115354E+02
 21
3.0039888E+01
 72
1
 10
2.8115354E+02
 20
3.0039888E+01
 11
2.8115354E+02
 21
3.2039786E+01
 72
1
 10
2.8115354E+02
 20
3.2039786E+01
 11
2.8465294E+02
 21
3.2039786E+01
 72
1
 10
2.8465294E+02
 20
3.2039786E+01
 11
2.8465294E+02
 21
3.3039735E+01
 72
1
 10
2.8465294E+02
 20
3.3039735E+01
 11
2.8015359E+02
 21
3.3039735E+01
 72
1
 10
2.8015359E+02
 20
3.3039735E+01
 11
2.8015359E+02
 21
2.6039251E+01
 97
0
 75
0
 76
1
 98
0
  0
HATCH
  5
e47
100
AcDbEntity
  8
1
 62
2
100
AcDbHatch
 10
0.0
 20
0.0
 30
0.0
210
0.0
220
0.0
230
1.0
  2
SOLID
 70
1
 71
0
 91
3
 92
1
 93
6
 72
1
 10
2.6465312E+02
 20
3.3866438E+01
 11
2.570488E+02
 21
3.6401212E+01
 72
1
 10
2.570488E+02
 20
3.6401212E+01
 11
2.570488E+02
 21
2.2677774E+01
 72
1
 10
2.570488E+02
 20
2.2677774E+01
 11
2.6465312E+02
 21
2.5212548E+01
 72
1
 10
2.6465312E+02
 20
2.5212548E+01
 11
2.7225744E+02
 21
2.2677774E+01
 72
1
 10
2.7225744E+02
 20
2.2677774E+01
 11
2.7225744E+02
 21
3.6401212E+01
 72
1
 10
2.7225744E+02
 20
3.6401212E+01
 11
2.6465312E+02
 21
3.3866438E+01
 97
0
 92
1
 93
12
 72
1
 10
2.6429464E+02
 20
3.3474532E+01
 11
2.6113338E+02
 21
2.9900701E+01
 72
1
 10
2.6113338E+02
 20
2.9900701E+01
 11
2.6429464E+02
 21
2.5604454E+01
 72
1
 10
2.6429464E+02
 20
2.5604454E+01
 11
2.6243233E+02
 21
2.5604454E+01
 72
1
 10
2.6243233E+02
 20
2.5604454E+01
 11
2.6011675E+02
 21
2.8751391E+01
 72
1
 10
2.6011675E+02
 20
2.8751391E+01
 11
2.5956364E+02
 21
2.8126097E+01
 72
1
 10
2.5956364E+02
 20
2.8126097E+01
 11
2.5956364E+02
 21
2.5604454E+01
 72
1
 10
2.5956364E+02
 20
2.5604454E+01
 11
2.5788248E+02
 21
2.5604454E+01
 72
1
 10
2.5788248E+02
 20
2.5604454E+01
 11
2.5788248E+02
 21
3.3474532E+01
 72
1
 10
2.5788248E+02
 20
3.3474532E+01
 11
2.5956364E+02
 21
3.3474532E+01
 72
1
 10
2.5956364E+02
 20
3.3474532E+01
 11
2.5956364E+02
 21
3.0390078E+01
 72
1
 10
2.5956364E+02
 20
3.0390078E+01
 11
2.6229202E+02
 21
3.3474532E+01
 72
1
 10
2.6229202E+02
 20
3.3474532E+01
 11
2.6429464E+02
 21
3.3474532E+01
 97
0
 92
1
 93
12
 72
1
 10
2.6532172E+02
 20
3.3474532E+01
 11
2.6700288E+02
 21
3.3474532E+01
 72
1
 10
2.6700288E+02
 20
3.3474532E+01
 11
2.6700288E+02
 21
3.0378811E+01
 72
1
 10
2.6700288E+02
 20
3.0378811E+01
 11
2.6980425E+02
 21
3.0378811E+01
 72
1
 10
2.6980425E+02
 20
3.0378811E+01
 11
2.6980425E+02
 21
3.3474532E+01
 72
1
 10
2.6980425E+02
 20
3.3474532E+01
 11
2.7148457E+02
 21
3.3474532E+01
 72
1
 10
2.7148457E+02
 20
3.3474532E+01
 11
2.7148457E+02
 21
2.5604454E+01
 72
1
 10
2.7148457E+02
 20
2.5604454E+01
 11
2.6980425E+02
 21
2.5604454E+01
 72
1
 10
2.6980425E+02
 20
2.5604454E+01
 11
2.6980425E+02
 21
2.8699334E+01
 72
1
 10
2.6980425E+02
 20
2.8699334E+01
 11
2.6700288E+02
 21
2.8699334E+01
 72
1
 10
2.6700288E+02
 20
2.8699334E+01
 11
2.6700288E+02
 21
2.5604454E+01
 72
1
 10
2.6700288E+02
 20
2.5604454E+01
 11
2.6532172E+02
 21
2.5604454E+01
 72
1
 10
2.6532172E+02
 20
2.5604454E+01
 11
2.6532172E+02
 21
3.3474532E+01
 97
0
 75
0
 76
1
 98
0
  0
VIEWPORT
  5
e48
100
AcDbEntity
 67
1
  8
0
  6
CONTINUOUS
 62
3
100
AcDbViewport
 10
2.1E+02
 20
1.485E+02
 30
0.0
 40
2.97E+02
 41
2.97E+02
 68
1
 69
1
1001
ACAD
1000
MVIEW
1002
{
1070
16
1010
0.0
1020
0.0
1030
0.0
1010
0.0
1020
0.0
1030
1.0
1040
0.0
1040
2.97E+02
1040
1.155E+02
1040
1.485E+02
1040
5.0E+01
1040
0.0
1040
0.0
1070
0
1070
100
1070
1
1070
0
1070
0
1070
0
1070
0
1070
0
1040
0.0
1040
0.0
1040
0.0
1040
5.0E-01
1040
5.0E-01
1040
5.0E-01
1040
5.0E-01
1070
0
1002
{
1002
}
1002
}
  0
VIEWPORT
  5
e49
100
AcDbEntity
 67
1
  8
0
  6
CONTINUOUS
 62
3
100
AcDbViewport
 10
2.1E+02
 20
1.485E+02
 30
0.0
 40
4.2E+02
 41
2.97E+02
 68
2
 69
2
1001
ACAD
1000
MVIEW
1002
{
1070
16
1010
0.0
1020
0.0
1030
0.0
1010
0.0
1020
0.0
1030
1.0
1040
0.0
1040
2.97E+02
1040
2.1E+02
1040
1.485E+02
1040
5.0E+01
1040
0.0
1040
0.0
1070
0
1070
100
1070
1
1070
0
1070
0
1070
0
1070
0
1070
0
1040
0.0
1040
0.0
1040
0.0
1040
5.0E-01
1040
5.0E-01
1040
5.0E-01
1040
5.0E-01
1070
0
1002
}
  0
VIEWPORT
  5
e4a
100
AcDbEntity
 67
1
  8
0
  6
CONTINUOUS
 62
3
100
AcDbViewport
 10
1.784994E+02
 20
2.0995877E+02
 30
0.0
 40
3.1170484E+02
 41
1.3543142E+02
 68
3
 69
3
1001
ACAD
1000
MVIEW
1002
{
1070
16
1010
0.0
1020
0.0
1030
0.0
1010
0.0
1020
0.0
1030
1.0
1040
0.0
1040
1.3543142E+03
1040
1.4512129E+04
1040
5.5358183E+03
1040
5.0E+01
1040
0.0
1040
0.0
1070
0
1070
100
1070
1
1070
0
1070
0
1070
0
1070
0
1070
0
1040
0.0
1040
0.0
1040
0.0
1040
5.0E-01
1040
5.0E-01
1040
5.0E-01
1040
5.0E-01
1070
0
1002
}
  0
VIEWPORT
  5
e4b
100
AcDbEntity
 67
1
  8
0
  6
CONTINUOUS
 62
3
100
AcDbViewport
 10
3.7467591E+02
 20
2.0995877E+02
 30
0.0
 40
8.0648173E+01
 41
1.3543142E+02
 68
4
 69
4
1001
ACAD
1000
MVIEW
1002
{
1070
16
1010
0.0
1020
0.0
1030
0.0
1010
0.0
1020
0.0
1030
1.0
1040
0.0
1040
1.3543142E+03
1040
2.1591834E+03
1040
5.5358183E+03
1040
5.0E+01
1040
0.0
1040
0.0
1070
0
1070
100
1070
1
1070
0
1070
0
1070
0
1070
0
1070
0
1040
0.0
1040
0.0
1040
0.0
1040
5.0E-01
1040
5.0E-01
1040
5.0E-01
1040
5.0E-01
1070
0
1002
}
  0
ENDSEC
  0
SECTION
  2
OBJECTS
  0
DICTIONARY
  5
e4c
100
AcDbDictionary
  3
ACAD_GROUP
350
e4d
  3
ACAD_MLINESTYLE
350
e4e
  0
DICTIONARY
  5
e4d
102
{ACAD_REACTORS
330
e4c
102
}
100
AcDbDictionary
  0
DICTIONARY
  5
e4e
102
{ACAD_REACTORS
330
e4c
102
}
100
AcDbDictionary
  3
STANDARD
350
e4f
  0
MLINESTYLE
  5
e4f
102
{ACAD_REACTORS
330
e4e
102
}
100
AcDbMlineStyle
  2
STANDARD
 70
0
  3

 62
256
 51
9.0E+01
 52
9.0E+01
 71
2
 49
5.0E-01
 62
256
  6
BYLAYER
 49
-5.0E-01
 62
256
  6
BYLAYER
  0
ENDSEC
  0
EOF
